<?xml version="1.0" standalone="no"?>
<!DOCTYPE svg PUBLIC "-//W3C//DTD SVG 1.1//EN" "http://www.w3.org/Graphics/SVG/1.1/DTD/svg11.dtd">
<svg xmlns="http://www.w3.org/2000/svg">
<defs >
<font id="Rubik" horiz-adv-x="543" ><font-face
    font-family="Rubik Light"
    units-per-em="1000"
    panose-1="0 0 0 0 0 0 0 0 0 0"
    ascent="935"
    descent="-250"
    alphabetic="0" />
<glyph unicode=" " horiz-adv-x="245" />
<glyph unicode="!" horiz-adv-x="245" d="M99 166Q89 166 83 172T76 189V677Q76 687 82 693T99 700H146Q156 700 162 694T169 677V189Q169 179 163 173T146 166H99ZM90 0Q80 0 74 6T67 23V86Q67 97 73 103T90 110H154Q164 110 170 104T177 86V23Q177 13 171 7T154 0H90Z" />
<glyph unicode="&quot;" horiz-adv-x="374" d="M249 489Q239 489 235 495T229 511L212 687Q211 698 216 704T232 710H297Q307 710 313 704T318 687L301 511Q300 502 295 496T280 489H249ZM93 489Q83 489 79 495T73 511L56 687Q55 698 60 704T76 710H141Q151 710
157 704T162 687L145 511Q144 502 140 496T124 489H93Z" />
<glyph unicode="#" horiz-adv-x="697" d="M173 39Q164 39 158 45T153 60L171 181H72Q62 181 56 187T50 203V237Q50 247 56 253T72 259H183L209 435H98Q88 435 82 441T76 457V491Q76 501 82 507T98 513H221L239 634Q241 642 246 648T261 655H298Q307 655 313 649T318
634L300 513H448L466 634Q468 642 473 648T488 655H525Q534 655 540 649T545 634L527 513H624Q634 513 640 507T647 491V457Q647 447 641 441T624 435H516L490 259H598Q608 259 614 253T621 237V203Q621 193 615 187T598 181H478L460 60Q457 39 437 39H400Q391
39 385 45T380 60L398 181H251L233 60Q230 39 210 39H173ZM263 259H410L436 435H289L263 259Z" />
<glyph unicode="$" horiz-adv-x="618" d="M290 -100Q279 -100 273 -94T267 -77V-7Q194 -1 144 26T68 93T40 176Q40 184 46 190T62 197H114Q125 197 131 191T139 177Q145 153 164 130T218 91T310 75Q396 75 436 105T477 187Q477 222 456 243T390 282T276 319Q203
340 155 365T84 427T60 521Q60 594 114 646T267 708V777Q267 787 273 793T290 800H328Q338 800 344 794T351 777V707Q418 699 463 670T531 603T555 529Q555 522 550 516T534 509H481Q474 509 467 513T455 528Q449 569 409 597T305 625Q240 625 200 600T159 522Q159
488 178 466T238 426T345 390Q425 368 476 344T551 283T576 189Q576 133 549 91T471 23T351 -8V-77Q351 -87 345 -93T328 -100H290Z" />
<glyph unicode="%" horiz-adv-x="761" d="M109 0Q88 0 88 20Q88 26 92 31L586 681Q593 690 599 695T619 700H652Q673 700 673 680Q673 674 669 669L176 19Q169 10 163 5T142 0H109ZM567 -6Q502 -6 465 31T423 128Q422 154 422 172T423 219Q427 279 462 316T567
354Q637 354 672 317T712 219Q714 191 714 173T712 128Q708 68 671 31T567 -6ZM567 60Q594 60 609 71T631 98T639 132Q641 159 641 175T639 215Q638 242 622 265T567 288Q529 288 514 265T496 215Q495 191 495 175T496 132Q498 115 504 99T526 71T567 60ZM193 349Q127
349 90 384T49 479Q48 505 48 523T49 570Q52 630 88 667T193 705Q263 705 298 668T337 570Q339 542 339 524T337 479Q334 419 297 384T193 349ZM193 411Q219 411 234 422T257 449T265 483Q267 510 267 525T265 566Q264 593 248 616T193 639Q155 639 140 616T122
566Q121 541 121 526T122 483Q124 466 130 450T152 422T193 411Z" />
<glyph unicode="&amp;" horiz-adv-x="694" d="M287 -10Q219 -10 167 15T85 84T56 187Q56 233 75 267T127 329T197 378Q150 428 131 466T111 545Q111 590 134 627T199 687T298 710Q354 710 395 688T459 629T482 546Q482 502 461 469T406 410T330 361L500 194Q516
222 530 259T554 346Q556 366 575 366H619Q629 366 634 360T640 345Q639 323 634 298T618 245T593 190T559 136L661 34Q670 26 670 19Q670 10 665 5T650 0H594Q584 0 578 3T567 10L501 75Q462 37 409 14T287 -10ZM287 70Q327 70 367 86T441 137L254 319Q211 295
180 265T148 189Q148 151 167 125T219 84T287 70ZM275 419Q307 437 334 455T378 495T395 545Q395 585 367 609T298 633Q259 633 230 610T201 544Q201 527 207 510T229 471T275 419Z" />
<glyph unicode="&apos;" horiz-adv-x="218" d="M93 489Q83 489 79 495T73 511L56 687Q55 698 60 704T76 710H141Q151 710 157 704T162 687L145 511Q144 502 140 496T124 489H93Z" />
<glyph unicode="(" horiz-adv-x="339" d="M291 -159Q226 -159 181 -132T109 -47T70 98T57 309Q57 431 69 520T109 665T181 749T291 776Q301 776 307 769T314 753V718Q314 709 308 702T294 695Q252 694 224 674T178 608T153 490T145 309Q145 202 152 129T177 10T223
-56T294 -78Q301 -78 307 -84T314 -101V-136Q314 -145 308 -152T291 -159Z" />
<glyph unicode=")" horiz-adv-x="339" d="M47 -159Q38 -159 31 -152T24 -136V-101Q24 -91 30 -85T45 -78Q87 -77 115 -56T161 10T186 128T194 309Q194 416 186 489T161 608T116 673T45 695Q37 695 31 702T24 718V753Q24 762 31 769T47 776Q112 776 157 749T229
666T269 520T281 309Q281 187 269 99T230 -47T157 -131T47 -159Z" />
<glyph unicode="*" horiz-adv-x="446" d="M146 412L102 445Q95 450 94 459T97 475Q97 476 103 482L175 548L77 559Q73 560 72 560T69 561Q62 563 58 571T55 589L73 642Q75 650 84 654T100 656Q101 656 108 652L194 603L174 700Q173 704 173 705T173 708Q173 716
179 723T195 730H250Q259 730 265 723T272 708Q272 707 272 706T271 700L251 603L338 652Q345 656 346 656Q354 658 362 654T373 642L391 589Q393 580 389 572T376 561Q375 561 374 561T369 559L270 548L343 482Q349 476 349 475Q354 469 353 460T344 445L300 412Q292
408 283 409T269 417Q269 418 268 419T265 424L223 515L181 424Q180 420 179 419T177 417Q173 410 164 409T146 412Z" />
<glyph unicode="+" horiz-adv-x="622" d="M293 33Q283 33 277 39T270 56V264H65Q55 264 49 270T42 287V319Q42 329 48 335T65 342H270V544Q270 554 276 560T293 567H328Q338 567 344 561T351 544V342H557Q567 342 573 336T580 319V287Q580 277 574 271T557 264H351V56Q351
46 345 40T328 33H293Z" />
<glyph unicode="," horiz-adv-x="249" d="M67 -75Q59 -75 55 -69T51 -54L74 89Q76 101 82 109T102 118H169Q176 118 180 113T185 101Q185 93 182 85L129 -52Q125 -62 119 -68T100 -75H67Z" />
<glyph unicode="-" horiz-adv-x="484" d="M92 258Q82 258 76 264T69 281V319Q69 329 75 335T92 342H392Q403 342 409 336T415 319V281Q415 271 409 265T392 258H92Z" />
<glyph unicode="." horiz-adv-x="252" d="M90 0Q80 0 74 6T67 23V95Q67 105 73 111T90 118H162Q172 118 179 112T186 95V23Q186 13 179 7T162 0H90Z" />
<glyph unicode="/" horiz-adv-x="482" d="M46 -84Q38 -84 32 -78T26 -64Q26 -59 29 -52L371 768Q374 774 379 780T397 786H436Q444 786 450 780T456 766Q456 762 454 754L111 -66Q109 -71 103 -77T85 -84H46Z" />
<glyph unicode="0" horiz-adv-x="635" d="M317 -10Q248 -10 201 11T123 71T80 158T64 262Q63 289 63 319T62 380T64 439Q65 494 79 543T124 629T201 688T317 710Q386 710 433 689T511 630T555 543T571 439Q572 411 572 380T573 319T571 262Q570 207 556 158T512
71T435 12T317 -10ZM317 76Q395 76 432 127T471 267Q473 296 473 323T473 378T471 433Q470 520 433 572T317 625Q240 625 203 573T163 433Q163 406 163 379T162 324T163 267Q165 178 203 127T317 76Z" />
<glyph unicode="1" horiz-adv-x="428" d="M276 0Q266 0 260 6T253 23V583L87 455Q79 449 70 450T55 459L29 492Q23 501 24 510T34 525L252 693Q259 698 265 699T278 700H329Q339 700 345 694T352 677V23Q352 13 346 7T329 0H276Z" />
<glyph unicode="2" horiz-adv-x="587" d="M72 0Q62 0 56 6T49 23V55Q49 64 54 75T74 99L286 311Q337 354 366 384T408 443T421 501Q421 558 389 591T294 625Q254 625 225 609T180 564T158 499Q156 486 148 481T132 476H80Q71 476 65 481T59 495Q60 533 75 571T119
641T192 692T294 711Q373 711 423 683T498 607T522 504Q522 460 507 424T464 353T393 282L201 87H513Q524 87 530 81T537 64V23Q537 13 531 7T513 0H72Z" />
<glyph unicode="3" horiz-adv-x="601" d="M298 -10Q235 -10 188 5T109 47T61 104T43 168Q43 177 49 182T64 188H113Q122 188 129 184T141 166Q151 130 175 110T232 83T298 75Q367 75 410 108T453 205Q453 270 414 298T306 326H211Q201 326 195 332T188 349V376Q188
385 191 391T199 403L393 615H98Q88 615 82 621T75 638V676Q75 687 81 693T98 700H497Q508 700 514 694T521 676V640Q521 633 518 628T510 617L317 402L333 401Q399 399 448 377T525 312T553 202Q553 135 520 88T430 16T298 -10Z" />
<glyph unicode="4" horiz-adv-x="621" d="M401 0Q391 0 385 6T378 23V167H54Q44 167 38 173T31 190V230Q31 234 33 242T42 260L342 683Q354 700 379 700H451Q461 700 467 694T474 677V254H564Q575 254 581 248T588 231V190Q588 180 582 174T565 167H474V23Q474
13 468 7T451 0H401ZM138 252H379V595L138 252Z" />
<glyph unicode="5" horiz-adv-x="594" d="M292 -10Q213 -10 159 17T76 89T45 182Q44 191 50 196T65 202H119Q128 202 135 198T146 180Q156 143 178 120T230 86T292 75Q335 75 370 92T427 144T448 228Q448 273 428 305T372 355T292 373Q259 373 238 365T203 346T177
327T151 319H99Q90 319 83 325T77 341L109 675Q110 687 116 693T134 700H483Q493 700 499 694T506 677V638Q506 627 500 621T483 615H195L176 418Q191 427 221 439T306 452Q356 452 399 437T476 393T529 323T548 227Q548 151 515 98T424 18T292 -10Z" />
<glyph unicode="6" horiz-adv-x="603" d="M308 -10Q225 -10 167 23T79 111T48 230Q48 260 55 287T74 339T97 383T118 415L308 680Q313 685 320 692T341 700H394Q403 700 408 694T414 678Q414 674 413 671T410 665L264 461Q276 465 292 466T321 468Q376 467 421
448T498 397T548 322T565 231Q565 168 535 113T448 24T308 -10ZM307 75Q349 75 385 93T443 145T466 231Q466 281 444 315T386 367T307 385Q265 385 229 368T171 316T148 231Q148 180 170 146T229 93T307 75Z" />
<glyph unicode="7" horiz-adv-x="513" d="M149 0Q140 0 135 6T129 22Q129 25 131 31L380 613H52Q42 613 36 619T29 636V676Q29 687 35 693T52 700H462Q474 700 480 694T486 676V639Q486 626 484 618T478 600L232 25Q228 17 222 9T203 0H149Z" />
<glyph unicode="8" horiz-adv-x="636" d="M318 -10Q260 -10 212 4T129 47T75 113T56 201Q56 262 85 306T164 373Q125 396 103 433T81 521Q81 581 110 622T193 687T318 710Q388 710 441 688T524 623T554 522Q554 471 532 434T472 373Q521 350 550 306T580 201Q580
136 547 89T455 16T318 -10ZM318 70Q364 70 401 86T460 131T482 201Q482 242 460 270T401 314T318 330Q272 330 235 315T175 271T153 201Q153 161 175 132T234 86T318 70ZM318 409Q356 409 388 423T440 461T460 519Q460 553 442 578T391 616T318 630Q278 630 246
617T194 578T175 519Q175 484 194 460T245 422T318 409Z" />
<glyph unicode="9" horiz-adv-x="593" d="M193 0Q184 0 179 6T173 22Q173 27 174 30T177 35L330 248Q305 242 276 242Q221 243 177 262T101 313T54 387T38 473Q38 517 53 559T100 635T179 689T290 710Q353 710 400 691T480 638T528 562T544 475Q544 434 532 400T504
339T472 289L279 20Q275 15 268 8T247 0H193ZM290 323Q332 323 367 341T424 393T445 474Q445 521 424 554T368 606T290 625Q249 625 214 607T158 555T137 474Q137 427 158 394T214 342T290 323Z" />
<glyph unicode=":" horiz-adv-x="256" d="M92 350Q82 350 76 356T69 373V443Q69 453 75 459T92 466H164Q174 466 180 460T187 443V373Q187 363 181 357T164 350H92ZM92 0Q82 0 76 6T69 23V93Q69 103 75 109T92 116H164Q174 116 180 110T187 93V23Q187 13 181 7T164 0H92Z" />
<glyph unicode=";" horiz-adv-x="271" d="M79 -75Q71 -75 67 -69T64 -54L86 89Q88 101 94 109T114 118H181Q188 118 192 113T197 101Q197 93 194 85L141 -52Q137 -62 131 -68T112 -75H79ZM104 350Q94 350 88 356T81 373V443Q81 453 87 459T104 466H176Q186 466
193 460T200 443V373Q200 363 193 357T176 350H104Z" />
<glyph unicode="&lt;" horiz-adv-x="492" d="M404 25Q398 25 392 29T380 35L65 252Q50 262 43 273T36 297V315Q36 329 43 339T65 360L380 576Q385 579 391 583T404 587Q412 587 418 582T424 566V522Q424 511 418 504T401 489L133 306L401 123Q412 115 418 108T424
90V45Q424 36 418 31T404 25Z" />
<glyph unicode="=" horiz-adv-x="570" d="M94 386Q84 386 78 392T72 408V442Q72 452 78 458T94 465H475Q485 465 491 459T498 442V408Q498 398 492 392T475 386H94ZM94 136Q84 136 78 142T72 158V192Q72 202 78 208T94 215H475Q485 215 491 209T498 192V158Q498
148 492 142T475 136H94Z" />
<glyph unicode="&gt;" horiz-adv-x="491" d="M88 26Q80 26 74 31T68 46V90Q68 102 73 109T91 123L358 307L91 489Q79 497 74 504T68 523V567Q68 577 74 582T88 587Q94 587 101 584T112 577L427 361Q442 350 449 340T456 315V298Q456 284 449 274T427 252L112 36Q108
33 101 30T88 26Z" />
<glyph unicode="?" horiz-adv-x="531" d="M243 164Q234 164 228 169T222 185Q222 195 222 205T222 225Q224 268 241 301T282 361T332 412T374 462T396 515Q400 551 382 575T333 613T269 626Q216 626 179 599T129 506Q126 494 119 489T103 484H55Q46 484 40 490T33
506Q34 547 51 584T99 649T174 693T272 710Q333 710 376 694T446 650T485 589T495 523Q492 483 475 452T434 394T386 342T344 289T324 229Q323 218 323 208T322 187Q320 176 314 170T297 164H243ZM235 0Q225 0 219 6T212 23V84Q212 94 218 100T235 107H300Q311
107 317 101T324 84V23Q324 13 318 7T300 0H235Z" />
<glyph unicode="@" horiz-adv-x="832" d="M411 -118Q304 -118 229 -82T112 22T60 187Q59 201 58 224T57 273T58 322T60 358Q67 426 93 483T162 580T267 643T407 665Q498 665 564 644T675 583T743 486T770 358Q772 333 772 307T772 259T770 227Q767 178 750 145T704
96T634 79Q601 79 578 90T542 114T523 136Q515 123 501 107T462 80T396 69Q322 69 278 122T234 273Q234 371 278 424T396 478Q437 478 460 463T498 430V447Q498 457 504 463T521 470H548Q558 470 564 464T571 447V234Q571 191 589 170T634 149Q661 149 674 164T692
200T697 234Q698 249 699 282T697 353Q691 432 661 486T569 568T407 596Q325 596 267 567T176 483T133 353Q131 336 131 305T130 243T133 192Q146 77 216 15T411 -48Q483 -48 525 -37T589 -10T626 17Q631 20 637 24T652 29H692Q701 29 707 23T714 7Q714 3 713 0T708
-7Q682 -36 643 -61T548 -102T411 -118ZM402 139Q455 139 476 175T498 273Q498 334 477 371T402 408Q351 408 329 371T307 273Q307 237 316 207T347 158T402 139Z" />
<glyph unicode="A" horiz-adv-x="670" d="M40 0Q32 0 26 6T20 20Q20 25 21 31L269 678Q273 688 280 694T301 700H369Q383 700 390 694T401 678L648 31Q650 25 650 20Q650 12 644 6T630 0H579Q567 0 562 6T554 17L499 159H171L116 17Q115 12 109 6T91 0H40ZM200
245H470L335 600L200 245Z" />
<glyph unicode="B" horiz-adv-x="668" d="M110 0Q99 0 93 6T87 23V676Q87 687 93 693T110 700H384Q459 700 506 676T576 609T599 515Q599 474 586 445T552 397T513 368Q552 349 582 306T613 202Q613 147 588 101T514 28T392 0H110ZM185 81H379Q443 81 478 116T513
202Q513 255 478 289T379 324H185V81ZM185 404H369Q433 404 466 433T499 514Q499 565 466 592T369 619H185V404Z" />
<glyph unicode="C" horiz-adv-x="666" d="M339 -10Q247 -10 187 24T95 119T61 261Q60 302 60 349T61 439Q64 520 95 581T186 676T339 710Q408 710 460 691T546 640T599 569T619 487Q620 478 614 472T598 466H543Q534 466 528 471T518 489Q501 567 455 596T339
625Q258 625 211 580T161 434Q158 352 161 266Q164 166 211 121T339 75Q408 75 454 104T518 211Q521 224 527 229T543 234H598Q607 234 613 229T619 214Q617 172 599 132T547 60T460 9T339 -10Z" />
<glyph unicode="D" horiz-adv-x="689" d="M110 0Q99 0 93 6T87 23V676Q87 687 93 693T110 700H337Q440 700 503 669T595 578T625 429Q626 384 626 350T625 272Q623 180 595 120T505 30T342 0H110ZM185 85H337Q406 85 447 104T506 165T526 276Q528 306 528 328T528
373T526 425Q524 522 480 568T332 615H185V85Z" />
<glyph unicode="E" horiz-adv-x="606" d="M110 0Q99 0 93 6T87 23V676Q87 687 93 693T110 700H523Q534 700 540 694T546 676V638Q546 627 540 621T523 615H183V396H501Q512 396 518 390T524 372V335Q524 325 518 319T501 312H183V85H531Q542 85 548 79T554 62V23Q554
13 548 7T531 0H110Z" />
<glyph unicode="F" horiz-adv-x="584" d="M110 0Q99 0 93 6T87 23V676Q87 687 93 693T110 700H518Q529 700 535 694T542 676V636Q542 625 536 619T518 613H184V380H498Q509 380 515 374T522 356V316Q522 306 516 300T498 293H184V23Q184 13 178 7T160 0H110Z" />
<glyph unicode="G" horiz-adv-x="681" d="M342 -10Q253 -10 192 23T98 116T61 257Q60 301 60 350T61 445Q65 526 97 585T192 677T342 710Q412 710 464 690T549 640T599 576T617 518Q618 509 612 504T596 498H537Q527 498 523 502T514 516Q505 542 485 567T430
608T342 625Q262 625 214 582T161 440Q158 351 161 262Q165 162 214 119T342 75Q395 75 436 95T502 155T526 259V301H376Q366 301 360 307T353 325V357Q353 368 359 374T376 381H602Q613 381 619 375T625 357V261Q625 179 592 118T494 24T342 -10Z" />
<glyph unicode="H" horiz-adv-x="714" d="M110 0Q99 0 93 6T87 23V676Q87 687 93 693T110 700H161Q172 700 178 694T185 676V400H529V676Q529 687 535 693T552 700H603Q614 700 620 694T627 676V23Q627 13 621 7T603 0H552Q542 0 536 6T529 23V310H185V23Q185
13 179 7T161 0H110Z" />
<glyph unicode="I" horiz-adv-x="273" d="M110 0Q99 0 93 6T87 23V677Q87 687 93 693T110 700H163Q174 700 180 694T186 677V23Q186 13 180 7T163 0H110Z" />
<glyph unicode="J" horiz-adv-x="634" d="M295 -10Q244 -10 199 3T118 42T61 108T38 202Q38 211 44 217T60 224H114Q125 224 131 218T140 201Q144 156 166 129T222 88T297 75Q373 75 413 125T453 258V613H98Q88 613 82 619T75 636V677Q75 687 81 693T98 700H529Q540
700 546 694T553 676V256Q553 175 522 115T434 23T295 -10Z" />
<glyph unicode="K" horiz-adv-x="601" d="M110 0Q99 0 93 6T87 23V676Q87 687 93 693T110 700H160Q171 700 177 694T184 676V428L451 684Q455 688 464 694T490 700H544Q552 700 558 694T564 680Q564 672 560 667L251 365L580 34Q585 28 585 20Q585 12 579 6T565
0H509Q492 0 483 6T470 17L184 298V23Q184 13 178 7T160 0H110Z" />
<glyph unicode="L" horiz-adv-x="563" d="M110 0Q99 0 93 6T87 23V677Q87 687 93 693T110 700H163Q173 700 179 694T186 677V87H518Q529 87 535 81T542 63V23Q542 13 536 7T518 0H110Z" />
<glyph unicode="M" horiz-adv-x="794" d="M110 0Q100 0 94 6T87 23V676Q87 687 93 693T110 700H160Q172 700 178 694T186 684L397 280L610 684Q612 688 617 694T635 700H684Q695 700 701 694T708 676V23Q708 13 702 7T684 0H635Q625 0 619 6T612 23V515L445 189Q441
179 433 174T413 168H382Q369 168 362 173T350 189L182 515V23Q182 13 176 7T159 0H110Z" />
<glyph unicode="N" horiz-adv-x="695" d="M110 0Q99 0 93 6T87 23V676Q87 687 93 693T110 700H156Q168 700 174 695T181 686L513 176V676Q513 687 519 693T536 700H584Q595 700 601 694T608 676V24Q608 14 602 7T585 0H537Q526 0 521 6T513 14L182 519V23Q182
13 176 7T158 0H110Z" />
<glyph unicode="O" horiz-adv-x="677" d="M339 -10Q253 -10 192 19T98 110T61 265Q60 309 60 349T61 434Q65 526 99 587T195 679T339 710Q420 710 481 680T578 588T616 434Q618 390 618 350T616 265Q613 172 580 111T485 20T339 -10ZM339 75Q415 75 463 121T516
270Q518 315 518 350T516 430Q514 499 491 542T428 605T339 625Q289 625 250 605T188 542T161 430Q160 386 160 351T161 270Q165 167 214 121T339 75Z" />
<glyph unicode="P" horiz-adv-x="642" d="M110 0Q99 0 93 6T87 23V676Q87 687 93 693T110 700H364Q438 700 492 676T577 605T607 486Q607 415 577 368T493 297T364 273H187V23Q187 13 181 7T163 0H110ZM186 357H359Q433 357 470 390T507 486Q507 548 471 582T359
616H186V357Z" />
<glyph unicode="Q" horiz-adv-x="677" d="M538 -65Q525 -65 517 -57T504 -42L463 14Q409 -10 338 -10Q253 -10 192 19T98 110T61 265Q60 309 60 349T61 434Q64 526 99 587T195 679T338 710Q420 710 481 680T578 588T615 434Q617 390 617 350T615 265Q610 128 543
60L609 -34Q610 -35 611 -37T612 -45Q613 -53 607 -59T592 -65H538ZM338 75Q414 75 463 121T516 270Q518 315 518 350T516 430Q514 499 491 542T428 605T338 625Q289 625 250 605T187 542T161 430Q160 386 160 351T161 270Q165 167 214 121T338 75Z" />
<glyph unicode="R" horiz-adv-x="655" d="M110 0Q99 0 93 6T87 23V676Q87 687 93 693T110 700H354Q467 700 533 647T599 490Q599 413 561 365T456 297L610 31Q613 25 613 20Q613 12 607 6T592 0H544Q527 0 519 9T505 27L360 281H185V23Q185 13 179 7T161 0H110ZM185
366H350Q425 366 462 397T499 491Q499 552 463 584T350 616H185V366Z" />
<glyph unicode="S" horiz-adv-x="622" d="M312 -10Q225 -10 166 17T76 86T42 176Q42 184 48 190T64 197H115Q127 197 133 191T141 177Q147 153 166 130T220 91T312 75Q398 75 438 105T479 187Q479 222 458 243T392 282T278 319Q205 340 157 365T86 427T62 521Q62
575 91 617T175 685T307 710Q369 710 415 694T493 650T540 591T557 529Q557 522 552 516T536 509H483Q476 509 469 513T457 528Q451 569 411 597T307 625Q242 625 202 600T161 522Q161 488 180 466T240 426T347 390Q427 368 478 344T553 283T578 189Q578 126 545
82T453 14T312 -10Z" />
<glyph unicode="T" horiz-adv-x="579" d="M263 0Q253 0 247 6T240 23V611H48Q38 611 32 617T25 634V676Q25 687 31 693T48 700H530Q541 700 547 694T554 676V634Q554 624 548 618T530 611H339V23Q339 13 333 7T315 0H263Z" />
<glyph unicode="U" horiz-adv-x="701" d="M351 -10Q267 -10 207 20T114 111T81 270V676Q81 687 87 693T104 700H155Q166 700 172 694T179 676V268Q179 170 225 123T351 76Q430 76 476 123T523 268V676Q523 687 529 693T546 700H598Q608 700 614 694T621 676V270Q621
173 589 112T496 20T351 -10Z" />
<glyph unicode="V" horiz-adv-x="655" d="M295 0Q280 0 272 7T258 26L35 669Q33 675 33 680Q33 688 39 694T53 700H105Q117 700 123 694T132 682L327 115L523 682Q525 687 531 693T549 700H601Q609 700 615 694T622 680Q622 675 620 669L396 26Q392 14 384 7T360 0H295Z" />
<glyph unicode="W" horiz-adv-x="801" d="M205 0Q192 0 185 7T174 27L45 669Q44 673 44 676T44 680Q44 688 50 694T64 700H116Q137 700 140 683L242 167L350 521Q353 530 360 537T382 545H419Q434 545 441 538T450 521L559 167L660 683Q663 700 685 700H737Q745
700 751 694T757 680Q757 679 757 676T756 669L627 27Q624 14 617 7T596 0H557Q543 0 535 7T524 25L400 406L277 25Q273 14 266 7T244 0H205Z" />
<glyph unicode="X" horiz-adv-x="633" d="M45 0Q37 0 31 6T24 20Q24 24 25 27T28 33L257 356L39 667Q36 673 36 680Q36 688 42 694T56 700H116Q126 700 132 696T143 683L319 433L494 683Q498 691 504 695T520 700H577Q585 700 591 694T597 680Q597 673 593 667L378
355L606 33Q608 31 609 28T610 20Q610 12 604 6T589 0H528Q519 0 513 5T501 17L315 276L130 17Q125 10 119 5T104 0H45Z" />
<glyph unicode="Y" horiz-adv-x="647" d="M297 0Q287 0 281 6T274 23V259L33 667Q32 670 31 673T30 680Q30 688 36 694T50 700H102Q111 700 118 696T128 683L323 359L518 683Q523 691 529 695T545 700H596Q605 700 611 694T617 680Q617 676 616 673T613 667L373
259V23Q373 13 367 7T349 0H297Z" />
<glyph unicode="Z" horiz-adv-x="600" d="M64 0Q53 0 47 7T41 24V67Q41 82 47 91T56 104L428 613H73Q63 613 57 619T50 636V676Q50 687 56 693T73 700H526Q537 700 543 694T550 676V633Q550 621 546 613T537 598L168 87H536Q547 87 553 81T560 63V23Q560 13 554
7T536 0H64Z" />
<glyph unicode="[" horiz-adv-x="326" d="M96 -159Q86 -159 80 -153T73 -136V753Q73 763 79 769T96 776H275Q286 776 292 770T298 753V718Q298 707 292 701T275 695H162V-74H275Q286 -74 292 -80T298 -97V-136Q298 -146 292 -152T275 -159H96Z" />
<glyph unicode="\" horiz-adv-x="481" d="M397 -84Q385 -84 379 -78T371 -66L28 754Q25 762 25 766Q25 774 31 780T45 786H84Q96 786 102 780T110 768L453 -52Q455 -59 455 -64Q455 -72 449 -78T435 -84H397Z" />
<glyph unicode="]" horiz-adv-x="326" d="M50 -159Q40 -159 34 -153T27 -136V-97Q27 -87 33 -81T50 -74H164V695H50Q40 695 34 701T27 718V753Q27 763 33 769T50 776H230Q240 776 246 770T253 753V-136Q253 -146 247 -152T230 -159H50Z" />
<glyph unicode="^" horiz-adv-x="432" d="M80 579Q65 579 65 591Q65 599 76 609L168 701Q179 712 186 714T201 716H231Q240 716 247 714T264 701L356 609Q367 599 367 591Q367 579 352 579H326Q319 579 312 580T298 586L216 642L134 586Q129 582 121 581T106 579H80Z" />
<glyph unicode="_" horiz-adv-x="748" d="M84 -41Q73 -41 67 -35T61 -18V20Q61 30 67 36T84 43H664Q674 43 680 37T687 20V-18Q687 -28 681 -34T664 -41H84Z" />
<glyph unicode="`" horiz-adv-x="337" d="M221 595Q210 595 203 597T188 606L72 701Q67 706 67 713Q67 733 86 733H154Q168 733 175 729T191 714L266 624Q271 619 271 611Q271 595 255 595H221Z" />
<glyph unicode="a" horiz-adv-x="552" d="M219 -10Q169 -10 128 10T62 64T37 141Q37 210 93 251T239 305L388 326V355Q388 403 361 430T271 457Q227 457 199 439T160 393Q154 378 139 378H94Q83 378 78 384T72 400Q72 415 83 437T119 480T180 515T272 530Q332
530 373 515T437 473T471 414T482 347V23Q482 13 476 7T459 0H413Q402 0 396 6T390 23V66Q377 48 355 31T300 2T219 -10ZM240 65Q281 65 315 82T368 137T388 230V258L272 241Q201 231 165 208T129 148Q129 120 145 102T187 74T240 65Z" />
<glyph unicode="b" horiz-adv-x="595" d="M331 -10Q271 -10 231 11T167 65V23Q167 13 161 7T144 0H98Q88 0 82 6T75 23V687Q75 697 81 703T98 710H147Q157 710 163 704T169 687V457Q194 488 233 509T331 530Q387 530 426 511T491 457T530 380T545 290Q546 274
546 260T545 230Q543 182 530 139T492 63T427 10T331 -10ZM310 71Q362 71 391 93T434 152T449 231Q450 260 449 289Q447 331 434 367T392 426T310 449Q263 449 232 427T186 371T169 302Q168 286 168 264T169 225Q171 188 185 153T230 94T310 71Z" />
<glyph unicode="c" horiz-adv-x="552" d="M284 -10Q213 -10 162 17T82 96T52 220Q51 235 51 260T52 300Q54 372 82 423T161 502T284 530Q342 530 383 514T452 473T492 419T507 364Q508 354 501 348T484 342H436Q426 342 421 346T411 362Q393 411 362 431T285 451Q225
451 188 414T147 295Q146 259 147 225Q150 142 187 106T285 69Q331 69 362 89T411 158Q416 169 421 174T436 179H484Q494 179 501 173T507 156Q506 135 498 113T473 69T429 29T367 1T284 -10Z" />
<glyph unicode="d" horiz-adv-x="595" d="M264 -10Q209 -10 169 9T104 62T66 139T51 230Q50 246 50 260T51 290Q53 337 65 380T103 457T169 510T264 530Q323 530 362 509T426 457V687Q426 697 432 703T449 710H497Q507 710 513 704T520 687V23Q520 13 514 7T497
0H452Q441 0 435 6T429 23V65Q404 33 364 12T264 -10ZM285 71Q335 71 365 94T410 152T426 225Q427 241 427 263T426 302Q425 337 410 371T364 427T285 449Q234 449 204 427T161 368T146 289Q145 260 146 231Q148 189 161 153T204 94T285 71Z" />
<glyph unicode="e" horiz-adv-x="560" d="M282 -10Q178 -10 117 53T50 227Q49 240 49 260T50 294Q54 365 83 418T162 501T281 530Q357 530 408 498T487 407T514 269V252Q514 241 508 235T491 229H145Q145 228 145 225T145 220Q147 179 163 144T209 86T281 64Q317
64 341 75T380 99T400 121Q409 133 414 135T430 138H479Q488 138 494 133T500 117Q499 102 484 81T442 38T374 4T282 -10ZM145 298H419V301Q419 346 403 381T355 436T281 457Q238 457 208 437T161 381T145 301V298Z" />
<glyph unicode="f" horiz-adv-x="385" d="M149 0Q139 0 133 6T126 23V440H41Q31 440 25 446T18 463V497Q18 507 24 513T41 520H126V570Q126 621 143 659T197 719T298 740H358Q368 740 374 734T381 717V683Q381 673 375 667T358 660H300Q253 660 236 636T219 565V520H348Q358
520 364 514T371 497V463Q371 453 365 447T348 440H219V23Q219 13 213 7T196 0H149Z" />
<glyph unicode="g" horiz-adv-x="597" d="M287 -220Q219 -220 176 -202T108 -159T73 -108T61 -67Q60 -57 67 -50T84 -43H132Q141 -43 147 -47T157 -64Q163 -79 175 -97T212 -129T282 -143Q329 -143 361 -130T409 -86T426 0V68Q402 37 363 17T265 -4Q209 -4 169
15T104 68T66 145T51 235Q50 263 51 290Q53 337 65 380T103 457T169 510T265 530Q325 530 364 508T429 453V496Q429 506 435 513T452 520H498Q508 520 515 513T522 496V11Q522 -56 500 -108T426 -190T287 -220ZM285 76Q335 76 365 99T410 157T426 228Q427 242 427
262T426 297Q425 333 411 368T366 426T285 449Q235 449 205 427T162 368T147 289Q146 263 147 236Q149 194 162 158T205 99T285 76Z" />
<glyph unicode="h" horiz-adv-x="609" d="M98 0Q88 0 82 6T75 23V687Q75 697 81 703T98 710H148Q159 710 165 704T171 687V454Q198 488 237 509T336 530Q401 530 446 502T515 423T539 305V23Q539 13 533 7T516 0H466Q456 0 450 6T443 23V300Q443 370 409 409T309
449Q247 449 209 410T171 300V23Q171 13 165 7T148 0H98Z" />
<glyph unicode="i" horiz-adv-x="242" d="M97 0Q87 0 81 6T74 23V497Q74 507 80 513T97 520H145Q155 520 161 514T168 497V23Q168 13 162 7T145 0H97ZM89 617Q79 617 73 623T66 640V694Q66 704 72 711T89 718H152Q162 718 169 711T176 694V640Q176 630 169 624T152
617H89Z" />
<glyph unicode="j" horiz-adv-x="254" d="M-11 -190Q-21 -190 -27 -184T-34 -167V-133Q-34 -123 -28 -117T-11 -110H3Q39 -110 56 -97T78 -61T84 -11V497Q84 507 90 513T107 520H156Q166 520 172 514T179 497V-12Q179 -65 163 -105T109 -167T8 -190H-11ZM99 617Q89
617 83 623T76 640V694Q76 704 82 711T99 718H163Q173 718 180 711T187 694V640Q187 630 180 624T163 617H99Z" />
<glyph unicode="k" horiz-adv-x="516" d="M98 0Q88 0 82 6T75 23V687Q75 697 81 703T98 710H145Q155 710 161 704T168 687V339L365 503Q377 513 383 516T405 520H458Q467 520 473 514T479 499Q479 495 477 490T467 480L236 288L492 39Q504 29 504 21Q504 12 498
6T483 0H431Q416 0 409 3T391 17L168 230V23Q168 13 162 7T145 0H98Z" />
<glyph unicode="l" horiz-adv-x="243" d="M98 0Q88 0 82 6T75 23V687Q75 697 81 703T98 710H145Q156 710 162 704T168 687V23Q168 13 162 7T145 0H98Z" />
<glyph unicode="m" horiz-adv-x="889" d="M97 0Q87 0 81 6T74 23V497Q74 507 80 513T97 520H142Q152 520 158 514T165 497V462Q188 493 223 511T307 530Q420 531 467 438Q490 480 534 505T634 530Q686 530 728 506T795 434T820 312V23Q820 13 814 7T797 0H750Q740
0 734 6T727 23V303Q727 359 711 391T668 436T609 449Q583 449 556 436T512 391T494 303V23Q494 13 488 7T471 0H424Q414 0 408 6T401 23V303Q401 359 384 391T340 436T283 449Q257 449 230 436T186 391T168 304V23Q168 13 162 7T145 0H97Z" />
<glyph unicode="n" horiz-adv-x="606" d="M97 0Q87 0 81 6T74 23V497Q74 507 80 513T97 520H144Q154 520 160 514T167 497V453Q193 487 232 508T334 530Q399 530 444 502T513 423T537 305V23Q537 13 531 7T514 0H464Q454 0 448 6T441 23V300Q441 370 407 409T307
449Q245 449 208 410T170 300V23Q170 13 164 7T147 0H97Z" />
<glyph unicode="o" horiz-adv-x="574" d="M287 -10Q211 -10 160 19T82 99T52 217Q51 234 51 260T52 303Q55 370 82 421T161 501T287 530Q362 530 413 501T491 421T522 303Q523 287 523 261T522 217Q519 151 492 100T414 19T287 -10ZM287 67Q349 67 386 106T426
222Q427 237 427 260T426 298Q423 374 386 413T287 453Q225 453 188 414T148 298Q147 283 147 260T148 222Q150 146 187 107T287 67Z" />
<glyph unicode="p" horiz-adv-x="596" d="M98 -190Q88 -190 82 -184T75 -167V497Q75 507 81 513T98 520H144Q154 520 160 514T167 497V453Q191 486 231 508T331 530Q387 530 426 511T491 459T530 384T545 294Q546 278 546 260T545 226Q543 179 530 137T492 62T427
10T331 -10Q273 -10 234 11T169 65V-167Q169 -177 163 -183T147 -190H98ZM310 71Q362 71 391 93T434 152T449 231Q450 260 449 289Q447 331 434 367T392 426T310 449Q261 449 231 426T186 368T169 295Q168 279 168 257T169 218Q170 183 185 149T232 93T310 71Z"
/>
<glyph unicode="q" horiz-adv-x="596" d="M450 -190Q439 -190 433 -184T427 -167V65Q402 33 363 12T265 -10Q210 -10 170 9T105 61T67 136T52 226Q51 242 51 260T52 294Q54 342 66 384T104 459T170 511T265 530Q325 530 365 508T429 453V497Q429 507 435 513T452
520H498Q508 520 514 514T521 497V-167Q521 -177 515 -183T498 -190H450ZM286 71Q334 71 364 93T410 149T427 218Q428 235 428 257T427 295Q426 332 411 367T366 426T286 449Q235 449 205 427T162 368T147 289Q146 260 147 231Q149 189 162 153T205 94T286 71Z"
/>
<glyph unicode="r" horiz-adv-x="380" d="M97 0Q87 0 81 6T74 23V496Q74 506 80 513T97 520H143Q153 520 160 513T167 496V452Q187 486 222 503T307 520H346Q356 520 362 514T369 497V456Q369 446 363 440T346 434H286Q232 434 201 403T170 317V23Q170 13 163
7T146 0H97Z" />
<glyph unicode="s" horiz-adv-x="510" d="M254 -10Q198 -10 158 4T93 38T56 78T42 110Q41 121 49 127T65 133H110Q115 133 118 132T128 123Q141 109 157 95T196 72T255 63Q306 63 339 82T372 140Q372 165 359 180T311 207T216 232Q156 246 121 266T71 315T56 380Q56
417 78 451T142 508T249 530Q301 530 338 517T399 485T435 446T448 414Q449 404 442 398T426 391H384Q377 391 373 394T364 401Q354 414 341 427T306 448T249 457Q199 457 174 436T149 383Q149 364 160 349T202 322T294 296Q360 283 398 261T452 210T468 143Q468
101 444 66T372 11T254 -10Z" />
<glyph unicode="t" horiz-adv-x="391" d="M277 0Q221 0 186 21T135 82T119 176V440H41Q31 440 25 446T18 463V497Q18 507 24 513T41 520H119V687Q119 697 125 703T142 710H189Q199 710 205 704T212 687V520H336Q347 520 353 514T359 497V463Q359 453 353 447T336
440H212V183Q212 136 228 109T285 82H346Q356 82 362 76T369 59V23Q369 13 363 7T346 0H277Z" />
<glyph unicode="u" horiz-adv-x="602" d="M268 -10Q204 -10 160 18T92 98T69 215V497Q69 507 75 513T92 520H142Q152 520 158 514T165 497V220Q165 71 295 71Q357 71 394 110T432 220V497Q432 507 438 513T455 520H505Q515 520 521 514T527 497V23Q527 13 521
7T505 0H458Q448 0 442 6T435 23V67Q408 32 370 11T268 -10Z" />
<glyph unicode="v" horiz-adv-x="554" d="M255 0Q240 0 232 7T218 25L33 489Q31 494 31 499Q31 508 37 514T52 520H100Q111 520 117 514T125 503L277 109L429 503Q431 508 436 514T453 520H502Q510 520 516 514T523 499Q523 494 521 489L335 25Q331 14 323 7T298 0H255Z" />
<glyph unicode="w" horiz-adv-x="802" d="M212 0Q199 0 192 6T180 25L38 489Q36 494 36 499Q36 508 42 514T57 520H101Q112 520 118 514T126 503L237 126L356 499Q358 506 364 513T384 520H418Q431 520 438 513T446 499L565 126L676 503Q677 508 683 514T700 520H745Q753
520 759 514T765 499Q765 494 763 489L622 25Q618 13 611 7T589 0H550Q537 0 529 6T517 25L401 383L285 25Q281 13 273 7T251 0H212Z" />
<glyph unicode="x" horiz-adv-x="539" d="M50 0Q42 0 36 6T29 21Q29 24 30 28T36 39L210 266L47 481Q43 487 42 491T40 499Q40 508 46 514T61 520H112Q123 520 129 515T138 504L271 331L404 503Q408 508 413 514T430 520H479Q488 520 494 514T500 499Q500 495
499 491T493 481L328 264L502 39Q506 33 507 29T509 21Q509 12 503 6T488 0H435Q425 0 419 5T409 15L269 198L127 15Q123 11 118 6T101 0H50Z" />
<glyph unicode="y" horiz-adv-x="552" d="M165 -190Q157 -190 151 -184T145 -170Q145 -166 146 -162T150 -152L227 31L36 482Q31 494 31 499Q31 508 37 514T52 520H101Q112 520 117 515T125 503L277 139L433 503Q436 510 441 515T458 520H505Q514 520 520 514T526
500Q526 495 521 482L237 -173Q234 -180 229 -185T212 -190H165Z" />
<glyph unicode="z" horiz-adv-x="509" d="M64 0Q54 0 48 6T41 23V58Q41 67 45 75T55 90L331 441H73Q63 441 57 447T50 464V497Q50 507 56 513T73 520H429Q439 520 445 514T452 497V460Q452 451 448 444T438 429L165 79H449Q460 79 466 73T472 56V23Q472 13 466
7T449 0H64Z" />
<glyph unicode="{" horiz-adv-x="368" d="M315 -159Q256 -159 218 -140T157 -84T126 7T117 131Q117 183 103 211T61 258L54 261Q29 277 29 299V319Q29 341 54 357L62 361Q90 380 103 408T117 487Q117 557 126 610T157 701T217 757T315 776H320Q330 776 336 770T342
754V717Q342 707 336 701T321 695H316Q268 694 245 671T214 598T206 468Q206 408 187 369T131 309Q156 296 172 274T197 220T206 150Q206 71 213 21T244 -53T316 -78H321Q330 -78 336 -84T342 -100V-137Q342 -147 336 -153T320 -159H315Z" />
<glyph unicode="|" horiz-adv-x="233" d="M97 -208Q87 -208 81 -202T74 -185V873Q74 883 80 889T97 896H136Q146 896 152 890T159 873V-185Q159 -195 153 -201T136 -208H97Z" />
<glyph unicode="}" horiz-adv-x="368" d="M53 776Q112 776 150 757T211 701T242 610T252 486Q252 434 265 406T307 360L315 356Q339 340 339 318V298Q339 276 315 261L306 256Q278 238 265 210T252 130Q252 60 243 7T211 -83T151 -139T54 -159H48Q38 -159 32 -153T26
-137V-100Q26 -90 32 -84T48 -78H52Q101 -76 124 -53T155 20T163 149Q163 210 181 249T237 308Q213 323 197 345T172 397T163 467Q163 548 156 597T125 670T53 695H48Q38 695 32 701T26 717V754Q26 764 32 770T48 776H53Z" />
<glyph unicode="~" horiz-adv-x="560" d="M90 241Q82 241 77 246T72 261V300Q72 315 87 328T128 351T182 360Q215 360 239 355T285 342T329 330T380 324Q410 324 428 335T457 354Q461 356 464 357T472 359Q481 359 485 354T489 338V299Q489 285 474 271T434 248T379
239Q348 239 324 245T278 257T234 270T181 276Q151 276 133 265T104 246Q100 244 97 243T90 241Z" />
<glyph unicode="&#xa0;" horiz-adv-x="245" />
<glyph unicode="&#xa1;" horiz-adv-x="237" d="M142 352Q152 352 158 346T165 329V-158Q165 -169 159 -175T142 -181H96Q85 -181 79 -175T73 -158V329Q73 339 79 345T96 352H142ZM151 519Q161 519 167 513T174 496V432Q174 422 168 415T151 408H87Q77 408 71 415T64
432V496Q64 506 70 512T87 519H151Z" />
<glyph unicode="&#xa2;" horiz-adv-x="560" d="M260 -100Q250 -100 244 -94T237 -77V-6Q154 6 106 64T55 220Q54 235 54 260T55 300Q57 396 105 455T237 526V587Q237 597 243 603T260 610H301Q311 610 317 604T324 587V527Q375 520 410 501T468 457T499 407T510
364Q511 354 504 348T487 342H439Q429 342 424 346T414 362Q396 411 362 431T282 451Q228 451 191 414T151 295Q149 259 151 225Q153 142 190 106T282 69Q328 69 362 89T414 158Q419 169 424 174T439 179H487Q497 179 504 173T510 156Q509 139 500 114T469 64T411
19T324 -7V-77Q324 -87 318 -93T301 -100H260Z" />
<glyph unicode="&#xa3;" horiz-adv-x="677" d="M463 -6Q426 -6 398 4T347 30T303 61T261 87T215 98Q173 98 158 76T136 19Q134 14 131 7T116 0H68Q60 0 55 6T49 19Q51 88 84 126T165 177Q164 207 159 237T149 303H72Q62 303 56 309T49 326V360Q49 370 55 376T72
383H136Q135 399 134 417T133 454Q133 526 159 584T238 676T373 711Q451 711 505 681T587 601T617 489Q617 480 611 474T596 467H543Q534 467 527 473T517 490Q504 555 470 590T372 626Q302 626 268 578T233 453Q233 434 234 417T237 383H429Q439 383 445 377T452
360V326Q452 316 446 310T429 303H245Q249 271 253 240T258 175Q292 168 316 153T362 121T405 92T455 79Q498 79 515 102T539 162Q540 167 545 173T558 179H603Q612 179 617 174T622 160Q621 107 600 70T543 13T463 -6Z" />
<glyph unicode="&#xa4;" horiz-adv-x="589" d="M96 78L72 102Q65 109 65 118T72 134L116 177Q77 230 77 300Q77 370 116 423L72 466Q65 473 65 482T72 498L96 522Q103 529 112 529T128 522L171 479Q197 497 228 507T294 518Q328 518 360 508T417 479L460 522Q468
529 477 529T493 522L517 498Q524 491 524 482T517 466L473 423Q491 397 501 366T512 300Q512 265 502 234T473 177L517 134Q524 127 524 118T517 102L493 78Q486 71 477 71T460 78L417 122Q364 83 294 83Q224 83 171 122L128 78Q121 71 112 71T96 78ZM294 161Q333
161 364 179T414 230T433 300Q433 339 415 370T365 420T294 439Q255 439 224 421T175 371T156 300Q156 262 174 230T224 180T294 161Z" />
<glyph unicode="&#xa5;" horiz-adv-x="617" d="M282 0Q272 0 266 6T259 23V280L37 667Q36 670 35 673T34 680Q34 688 40 694T54 700H107Q117 700 123 696T134 683L308 382L483 683Q488 691 494 695T510 700H563Q571 700 577 694T583 680Q583 676 582 673T580 667L358
280V23Q358 13 352 7T334 0H282ZM117 106Q107 106 101 112T94 129V164Q94 174 100 180T117 187H500Q510 187 516 181T523 164V129Q523 119 517 113T500 106H117ZM117 236Q107 236 101 242T94 258V293Q94 303 100 309T117 316H500Q510 316 516 310T523 293V258Q523
248 517 242T500 236H117Z" />
<glyph unicode="&#xa6;" horiz-adv-x="238" d="M100 475Q90 475 84 481T77 498V806Q77 816 83 822T100 829H139Q149 829 155 823T162 806V498Q162 488 156 482T139 475H100ZM100 0Q90 0 84 6T77 23V331Q77 341 83 347T100 354H139Q149 354 155 348T162 331V23Q162
13 156 7T139 0H100Z" />
<glyph unicode="&#xa7;" horiz-adv-x="569" d="M279 -140Q226 -140 187 -127T123 -93T85 -47T71 -2Q70 8 76 13T92 19H138Q146 19 152 15T162 0Q169 -15 180 -30T214 -55T278 -65Q331 -65 356 -39T382 25Q382 52 371 68T332 98T249 125Q175 147 130 173T63 235T42
323Q42 366 64 398T118 455Q105 472 100 493T94 540Q94 582 116 621T181 685T290 710Q361 710 406 688T474 633T498 572Q499 563 493 558T477 552H431Q422 552 417 556T406 570Q400 586 389 600T354 625T291 635Q237 635 212 609T187 545Q187 518 198 502T237 473T320
445Q394 423 439 397T505 335T526 247Q526 204 504 172T450 115Q464 97 469 76T474 30Q474 -12 453 -51T388 -115T279 -140ZM381 165Q408 181 423 199T438 245Q438 271 427 292T383 331T288 368Q256 378 232 387T188 405Q160 390 146 371T131 325Q131 299 142 278T186
239T281 202Q339 185 381 165Z" />
<glyph unicode="&#xa8;" horiz-adv-x="401" d="M258 621Q247 621 241 627T235 643V697Q235 707 241 713T258 720H312Q322 720 328 714T335 697V643Q335 633 329 627T312 621H258ZM88 621Q78 621 72 627T66 643V697Q66 707 72 713T88 720H143Q153 720 159 714T166
697V643Q166 633 160 627T143 621H88Z" />
<glyph unicode="&#xa9;" horiz-adv-x="826" d="M413 -10Q338 -10 273 18T159 95T81 210T53 350Q53 425 81 490T158 604T273 682T413 710Q488 710 553 682T667 605T745 490T773 350Q773 275 745 210T668 96T553 18T413 -10ZM413 53Q474 53 527 76T620 140T683 235T706
350Q706 411 683 465T620 560T527 624T413 648Q352 648 299 625T206 560T144 465T121 350Q121 289 143 235T206 140T299 76T413 53ZM413 158Q362 158 326 179T271 236T249 316Q249 325 249 338T248 364T249 386Q251 430 270 465T326 522T413 544Q469 544 505 527T558
484T576 433Q576 423 570 417T554 411H522Q511 411 506 417T498 430Q490 453 471 465T413 477Q378 477 359 463T333 427T324 385Q324 376 324 364T323 339T324 317Q325 298 332 276T359 240T413 225Q451 225 470 237T498 272Q501 279 506 285T522 291H554Q564 291
570 285T576 269Q575 245 558 219T505 176T413 158Z" />
<glyph unicode="&#xaa;" horiz-adv-x="364" d="M146 429Q102 429 77 451T51 506Q51 546 81 570T164 601L226 610Q226 615 224 623T212 637T182 644Q163 644 153 640T136 630T119 625H88Q80 625 74 628T69 641Q70 652 84 667T124 693T185 705Q239 705 268 676T298
597V455Q298 445 293 440T278 434H247Q238 434 233 439T227 455V463Q218 448 195 439T146 429ZM159 487Q196 487 211 507T226 556L182 549Q146 544 135 533T123 509Q123 499 134 493T159 487Z" />
<glyph unicode="&#xab;" horiz-adv-x="608" d="M531 85Q526 85 521 87T509 95L315 283Q306 292 303 300T299 316V342Q300 350 303 358T315 375L509 563Q515 568 520 571T531 574Q540 574 545 568T551 553V513Q551 500 547 493T533 475L383 329L533 183Q543 173
547 166T551 145V105Q551 96 546 91T531 85ZM274 85Q269 85 264 87T252 95L59 283Q49 292 46 300T42 316V342Q43 350 46 358T59 375L252 563Q258 568 263 571T274 574Q283 574 289 568T295 553V513Q295 500 291 493T277 475L126 329L277 183Q287 173 291 166T295
145V105Q295 96 289 91T274 85Z" />
<glyph unicode="&#xac;" horiz-adv-x="578" d="M447 159Q437 159 431 165T424 182V282H93Q82 282 76 288T70 305V338Q70 349 76 355T93 361H483Q493 361 499 355T506 338V182Q506 172 500 166T483 159H447Z" />
<glyph unicode="&#xad;" horiz-adv-x="600" d="M92 258Q82 258 76 264T69 281V319Q69 329 75 335T92 342H392Q403 342 409 336T415 319V281Q415 271 409 265T392 258H92Z" />
<glyph unicode="&#xae;" horiz-adv-x="826" d="M413 -10Q338 -10 273 18T159 95T81 210T53 350Q53 425 81 490T158 604T273 682T413 710Q488 710 553 682T667 605T745 490T773 350Q773 275 745 210T668 96T553 18T413 -10ZM413 53Q474 53 527 76T620 140T683 235T706
350Q706 411 683 465T620 560T527 624T413 648Q352 648 299 625T206 560T144 465T121 350Q121 289 143 235T206 140T299 76T413 53ZM297 168Q275 168 275 190V512Q275 534 297 534H428Q466 534 498 523T549 486T569 416Q569 376 550 350T500 312L564 204Q566 202
567 199T568 190Q568 182 563 175T546 168H519Q509 168 502 173T490 187L425 298H349V190Q349 168 327 168H297ZM349 364H426Q466 364 480 380T494 416Q494 437 480 453T426 469H349V364Z" />
<glyph unicode="&#xaf;" horiz-adv-x="400" d="M88 617Q78 617 72 623T66 639V670Q66 680 72 686T88 692H311Q322 692 328 686T334 670V639Q334 629 328 623T311 617H88Z" />
<glyph unicode="&#xb0;" horiz-adv-x="388" d="M194 426Q154 426 121 444T67 495T47 568Q47 609 67 641T120 691T194 710Q235 710 268 692T321 641T341 568Q341 528 321 496T268 445T194 426ZM194 492Q228 492 249 513T270 568Q270 602 249 623T194 644Q160 644
139 623T118 568Q118 534 139 513T194 492Z" />
<glyph unicode="&#xb1;" horiz-adv-x="560" d="M262 192Q252 192 246 198T239 215V369H86Q76 369 70 375T63 392V424Q63 434 69 440T86 447H239V598Q239 608 245 614T262 621H298Q308 621 314 615T321 598V447H473Q484 447 490 441T496 424V392Q496 382 490 376T473
369H321V215Q321 204 315 198T298 192H262ZM96 0Q86 0 80 6T73 23V55Q73 65 79 71T96 78H463Q474 78 480 72T486 55V23Q486 13 480 7T463 0H96Z" />
<glyph unicode="&#xb2;" horiz-adv-x="341" d="M52 350Q30 350 30 372V394Q30 402 35 409T54 427Q115 472 153 499T208 547T225 593Q225 615 209 628T169 642Q145 642 134 635T117 618T109 603Q103 592 98 589T85 585H57Q37 585 39 604Q41 631 58 653T105 690T169
705Q228 705 262 673T297 594Q297 559 281 532T232 478T147 415H290Q312 415 312 393V372Q312 350 290 350H52Z" />
<glyph unicode="&#xb3;" horiz-adv-x="341" d="M166 345Q118 345 89 357T44 389T27 428Q26 438 33 442T44 447H70Q77 447 83 444T95 436Q102 430 108 424T126 413T165 409Q195 409 214 421T234 454Q234 479 216 488T169 498H128Q118 498 112 504T106 519V539Q106
546 109 551T118 561L198 634H65Q43 634 43 656V678Q43 700 65 700H270Q292 700 292 678V658Q292 648 290 640T277 622L205 558Q258 554 282 525T307 453Q307 404 270 375T166 345Z" />
<glyph unicode="&#xb4;" horiz-adv-x="337" d="M82 595Q66 595 66 611Q66 619 71 624L146 714Q155 725 162 729T183 733H251Q270 733 270 713Q270 706 265 701L149 606Q141 599 134 597T116 595H82Z" />
<glyph unicode="&#xb5;" horiz-adv-x="607" d="M95 -200Q84 -200 78 -194T72 -177V497Q72 507 78 513T95 520H145Q155 520 161 514T168 497V220Q168 174 188 140T240 89T304 71Q338 71 369 88T420 140T440 220V497Q440 507 446 513T463 520H513Q523 520 529 514T536
497V23Q536 13 530 7T513 0H466Q456 0 450 6T443 23V67Q421 37 390 17T307 -5Q257 -6 225 11T168 56V-177Q168 -187 162 -193T145 -200H95Z" />
<glyph unicode="&#xb6;" horiz-adv-x="532" d="M234 -100Q224 -100 218 -94T211 -77V339Q161 339 120 363T55 428T30 519Q30 569 54 610T120 675T211 700H432Q442 700 448 694T455 677V-77Q455 -87 449 -93T432 -100H395Q385 -100 379 -94T372 -77V625H293V-77Q293
-87 287 -93T271 -100H234Z" />
<glyph unicode="&#xb7;" horiz-adv-x="330" d="M165 196Q136 196 112 210T73 250T58 304Q58 334 72 358T111 396T165 411Q195 411 219 397T258 358T273 304Q273 275 258 250T219 211T165 196Z" />
<glyph unicode="&#xb8;" horiz-adv-x="313" d="M152 -220Q124 -219 103 -210T72 -189T71 -169L86 -155Q95 -147 102 -151T120 -163T152 -170Q168 -170 180 -160T192 -133Q192 -117 180 -108T152 -98Q137 -98 127 -102T109 -107T93 -101L76 -83Q71 -77 73 -69T80
-53L115 27H174L133 -56Q139 -52 149 -50T170 -48Q204 -48 225 -71T247 -132Q247 -168 223 -194T152 -220Z" />
<glyph unicode="&#xb9;" horiz-adv-x="258" d="M146 350Q124 350 124 372V610L65 566Q58 561 49 562T34 571L21 588Q15 596 16 604T25 619L124 693Q134 700 147 700H175Q197 700 197 678V372Q197 350 175 350H146Z" />
<glyph unicode="&#xba;" horiz-adv-x="359" d="M180 429Q124 429 91 457T54 540Q53 548 53 567T54 594Q57 649 93 677T180 705Q231 705 266 677T305 594Q306 587 306 568T305 540Q302 485 269 457T180 429ZM180 492Q205 492 218 505T232 545Q233 553 233 567T232
589Q231 614 218 628T180 643Q155 643 142 629T128 589Q127 582 127 568T128 545Q130 518 142 505T180 492Z" />
<glyph unicode="&#xbb;" horiz-adv-x="608" d="M334 85Q325 85 320 90T314 105V145Q314 158 318 165T332 183L482 329L332 475Q322 485 318 492T314 513V553Q314 562 319 568T334 574Q339 574 345 571T356 563L550 375Q559 366 562 358T566 342V316Q566 308 563
300T550 283L356 95Q351 90 345 88T334 85ZM78 85Q69 85 63 90T57 105V145Q57 158 61 165T75 183L226 329L75 475Q65 485 61 492T57 513V553Q57 562 63 568T78 574Q83 574 88 571T100 563L293 375Q302 366 305 358T310 342V316Q309 308 306 300T293 283L100 95Q94
90 89 88T78 85Z" />
<glyph unicode="&#xbc;" horiz-adv-x="776" d="M146 350Q124 350 124 372V610L65 566Q58 561 49 562T34 571L21 588Q15 596 16 604T25 619L124 693Q134 700 147 700H175Q197 700 197 678V372Q197 350 175 350H146ZM84 0Q63 0 63 20Q63 26 67 31L561 681Q568 690
574 695T594 700H622Q643 700 643 680Q643 674 639 669L145 19Q138 10 132 5T112 0H84ZM646 0Q624 0 624 22V70H476Q454 70 454 92V115Q454 117 455 125T466 145L602 332Q610 343 617 346T632 350H674Q696 350 696 328V136H731Q753 136 753 114V92Q753 70 731 70H696V22Q696
0 674 0H646ZM539 135H625V258L539 135Z" />
<glyph unicode="&#xbd;" horiz-adv-x="774" d="M146 350Q124 350 124 372V610L65 566Q58 561 49 562T34 571L21 588Q15 596 16 604T25 619L124 693Q134 700 147 700H175Q197 700 197 678V372Q197 350 175 350H146ZM84 0Q63 0 63 20Q63 26 67 31L561 681Q568 690
574 695T594 700H622Q643 700 643 680Q643 674 639 669L145 19Q138 10 132 5T112 0H84ZM485 0Q463 0 463 22V44Q463 52 468 59T487 77Q548 122 586 149T641 197T658 243Q658 265 642 278T602 292Q578 292 567 285T550 268T542 253Q536 242 531 239T518 235H490Q470
235 472 254Q474 281 491 303T538 340T602 355Q661 355 695 323T730 244Q730 209 714 182T665 128T580 65H723Q745 65 745 43V22Q745 0 723 0H485Z" />
<glyph unicode="&#xbe;" horiz-adv-x="860" d="M166 345Q118 345 89 357T44 389T27 428Q26 438 33 442T44 447H70Q77 447 83 444T95 436Q102 430 108 424T126 413T165 409Q195 409 214 421T234 454Q234 479 216 488T169 498H128Q118 498 112 504T106 519V539Q106
546 109 551T118 561L198 634H65Q43 634 43 656V678Q43 700 65 700H270Q292 700 292 678V658Q292 648 290 640T277 622L205 558Q258 554 282 525T307 453Q307 404 270 375T166 345ZM167 0Q146 0 146 20Q146 26 150 31L644 681Q651 690 657 695T677 700H705Q726
700 726 680Q726 674 722 669L228 19Q221 10 215 5T195 0H167ZM730 0Q708 0 708 22V70H560Q538 70 538 92V115Q538 117 539 125T550 145L686 332Q694 343 701 346T716 350H758Q780 350 780 328V136H815Q837 136 837 114V92Q837 70 815 70H780V22Q780 0 758 0H730ZM623
135H709V258L623 135Z" />
<glyph unicode="&#xbf;" horiz-adv-x="525" d="M285 356Q295 356 301 350T307 335Q307 325 307 315T306 294Q305 252 288 219T246 159T197 107T154 59T133 5Q129 -30 146 -55T195 -94T259 -107Q313 -107 350 -79T399 13Q402 26 409 31T426 36H473Q483 36 489 30T495
14Q494 -28 477 -64T429 -129T354 -173T256 -190Q195 -190 152 -174T82 -130T43 -70T33 -3Q36 37 53 68T94 126T143 178T184 231T204 291Q205 302 205 312T207 333Q209 344 215 350T231 356H285ZM293 520Q303 520 309 514T316 497V436Q316 426 310 419T293 412H228Q218
412 211 419T204 436V497Q204 507 211 513T228 520H293Z" />
<glyph unicode="&#xc0;" horiz-adv-x="670" d="M40 0Q32 0 26 6T20 20Q20 25 21 31L269 678Q273 688 280 694T301 700H369Q383 700 390 694T401 678L648 31Q650 25 650 20Q650 12 644 6T630 0H579Q567 0 562 6T554 17L499 159H171L116 17Q115 12 109 6T91 0H40ZM200
245H470L335 600L200 245ZM330 750Q319 750 312 752T297 761L181 856Q176 861 176 868Q176 888 195 888H269Q283 888 290 884T306 869L381 779Q386 774 386 766Q386 750 370 750H330Z" />
<glyph unicode="&#xc1;" horiz-adv-x="670" d="M40 0Q32 0 26 6T20 20Q20 25 21 31L269 678Q273 688 280 694T301 700H369Q383 700 390 694T401 678L648 31Q650 25 650 20Q650 12 644 6T630 0H579Q567 0 562 6T554 17L499 159H171L116 17Q115 12 109 6T91 0H40ZM200
245H470L335 600L200 245ZM308 750Q292 750 292 766Q292 774 297 779L372 869Q381 880 388 884T409 888H483Q502 888 502 868Q502 861 497 856L381 761Q373 754 366 752T348 750H308Z" />
<glyph unicode="&#xc2;" horiz-adv-x="670" d="M40 0Q32 0 26 6T20 20Q20 25 21 31L269 678Q273 688 280 694T301 700H369Q383 700 390 694T401 678L648 31Q650 25 650 20Q650 12 644 6T630 0H579Q567 0 562 6T554 17L499 159H171L116 17Q115 12 109 6T91 0H40ZM200
245H470L335 600L200 245ZM198 750Q183 750 183 762Q183 770 194 781L286 873Q297 884 304 886T319 888H351Q360 888 367 886T384 873L476 781Q487 770 487 762Q487 750 472 750H445Q438 750 431 752T417 757L335 814L253 757Q248 754 240 752T225 750H198Z" />
<glyph unicode="&#xc3;" horiz-adv-x="670" d="M40 0Q32 0 26 6T20 20Q20 25 21 31L269 678Q273 688 280 694T301 700H369Q383 700 390 694T401 678L648 31Q650 25 650 20Q650 12 644 6T630 0H579Q567 0 562 6T554 17L499 159H171L116 17Q115 12 109 6T91 0H40ZM200
245H470L335 600L200 245ZM387 745Q363 745 346 753T316 770T287 779Q275 779 270 772T260 758T244 750H212Q205 750 200 755T195 766Q195 781 200 797T217 828T245 850T281 859Q306 859 323 851T354 834T383 825Q395 825 400 832T409 847T425 855H457Q466 855
470 850T474 838Q474 824 468 808T451 777T423 754T387 745Z" />
<glyph unicode="&#xc4;" horiz-adv-x="670" d="M40 0Q32 0 26 6T20 20Q20 25 21 31L269 678Q273 688 280 694T301 700H369Q383 700 390 694T401 678L648 31Q650 25 650 20Q650 12 644 6T630 0H579Q567 0 562 6T554 17L499 159H171L116 17Q115 12 109 6T91 0H40ZM200
245H470L335 600L200 245ZM407 750Q396 750 390 756T384 772V826Q384 836 390 842T407 849H461Q471 849 477 843T484 826V772Q484 762 478 756T461 750H407ZM207 750Q197 750 191 756T185 772V826Q185 836 191 842T207 849H262Q272 849 278 843T285 826V772Q285
762 279 756T262 750H207Z" />
<glyph unicode="&#xc5;" horiz-adv-x="670" d="M40 0Q32 0 26 6T20 20Q20 25 21 31L269 678Q273 688 280 694T301 700H369Q383 700 390 694T401 678L648 31Q650 25 650 20Q650 12 644 6T630 0H579Q567 0 562 6T554 17L499 159H171L116 17Q115 12 109 6T91 0H40ZM200
245H470L335 600L200 245ZM335 740Q301 740 276 762T251 819Q251 853 275 875T335 898Q370 898 394 876T419 819Q419 784 395 762T335 740ZM335 789Q348 789 356 797T365 819Q365 832 357 840T335 849Q322 849 314 841T305 819Q305 806 313 798T335 789Z" />
<glyph unicode="&#xc6;" horiz-adv-x="936" d="M25 0Q17 0 11 6T5 20Q5 26 8 33Q12 43 17 56T35 95T69 163T127 273T217 440T347 678Q353 689 360 694T377 700H853Q864 700 870 694T876 676V638Q876 627 870 621T853 615H518V396H831Q842 396 848 390T854 372V335Q854
325 848 319T831 312H518V85H861Q872 85 878 79T884 62V23Q884 13 878 7T861 0H445Q435 0 429 6T422 23V159H181Q154 110 139 82T116 40T107 22T104 17Q100 10 94 5T79 0H25ZM219 245H422V609H415L219 245Z" />
<glyph unicode="&#xc7;" horiz-adv-x="666" d="M335 -220Q308 -219 286 -210T255 -189T254 -169L269 -155Q278 -147 285 -151T303 -163T335 -170Q352 -170 363 -160T375 -133Q375 -117 364 -108T335 -98Q320 -98 310 -102T292 -107T276 -101L259 -83Q254 -77 256
-69T263 -53L283 -6Q210 4 162 39T89 131T61 261Q60 302 60 349T61 439Q64 520 95 581T186 676T339 710Q408 710 460 691T546 640T599 569T619 487Q620 478 614 472T598 466H543Q534 466 528 471T518 489Q501 567 455 596T339 625Q258 625 211 580T161 434Q158
352 161 266Q164 166 211 121T339 75Q408 75 454 104T518 211Q521 224 527 229T543 234H598Q607 234 613 229T619 214Q617 172 599 132T547 60T460 9T339 -10L317 -56Q323 -52 333 -50T353 -48Q387 -48 408 -71T430 -132Q430 -168 406 -194T335 -220Z" />
<glyph unicode="&#xc8;" horiz-adv-x="606" d="M110 0Q99 0 93 6T87 23V676Q87 687 93 693T110 700H523Q534 700 540 694T546 676V638Q546 627 540 621T523 615H183V396H501Q512 396 518 390T524 372V335Q524 325 518 319T501 312H183V85H531Q542 85 548 79T554
62V23Q554 13 548 7T531 0H110ZM298 750Q287 750 280 752T265 761L149 856Q144 861 144 868Q144 888 163 888H237Q251 888 258 884T274 869L349 779Q354 774 354 766Q354 750 338 750H298Z" />
<glyph unicode="&#xc9;" horiz-adv-x="606" d="M110 0Q99 0 93 6T87 23V676Q87 687 93 693T110 700H523Q534 700 540 694T546 676V638Q546 627 540 621T523 615H183V396H501Q512 396 518 390T524 372V335Q524 325 518 319T501 312H183V85H531Q542 85 548 79T554
62V23Q554 13 548 7T531 0H110ZM276 750Q260 750 260 766Q260 774 265 779L340 869Q349 880 356 884T377 888H451Q470 888 470 868Q470 861 465 856L349 761Q341 754 334 752T316 750H276Z" />
<glyph unicode="&#xca;" horiz-adv-x="606" d="M110 0Q99 0 93 6T87 23V676Q87 687 93 693T110 700H523Q534 700 540 694T546 676V638Q546 627 540 621T523 615H183V396H501Q512 396 518 390T524 372V335Q524 325 518 319T501 312H183V85H531Q542 85 548 79T554
62V23Q554 13 548 7T531 0H110ZM166 750Q151 750 151 762Q151 770 162 781L254 873Q265 884 272 886T287 888H319Q328 888 335 886T352 873L444 781Q455 770 455 762Q455 750 440 750H413Q406 750 399 752T385 757L303 814L221 757Q216 754 208 752T193 750H166Z"
/>
<glyph unicode="&#xcb;" horiz-adv-x="606" d="M110 0Q99 0 93 6T87 23V676Q87 687 93 693T110 700H523Q534 700 540 694T546 676V638Q546 627 540 621T523 615H183V396H501Q512 396 518 390T524 372V335Q524 325 518 319T501 312H183V85H531Q542 85 548 79T554
62V23Q554 13 548 7T531 0H110ZM376 750Q365 750 359 756T353 772V826Q353 836 359 842T376 849H430Q440 849 446 843T453 826V772Q453 762 447 756T430 750H376ZM176 750Q166 750 160 756T154 772V826Q154 836 160 842T176 849H231Q241 849 247 843T254 826V772Q254
762 248 756T231 750H176Z" />
<glyph unicode="&#xcc;" horiz-adv-x="273" d="M110 0Q99 0 93 6T87 23V677Q87 687 93 693T110 700H163Q174 700 180 694T186 677V23Q186 13 180 7T163 0H110ZM388 750Q377 750 370 752T355 761L239 856Q234 861 234 868Q234 888 253 888H327Q341 888 348 884T364
869L439 779Q444 774 444 766Q444 750 428 750H388Z" />
<glyph unicode="&#xcd;" horiz-adv-x="273" d="M110 0Q99 0 93 6T87 23V677Q87 687 93 693T110 700H163Q174 700 180 694T186 677V23Q186 13 180 7T163 0H110ZM365 750Q349 750 349 766Q349 774 354 779L429 869Q438 880 445 884T466 888H540Q559 888 559 868Q559
861 554 856L438 761Q430 754 423 752T405 750H365Z" />
<glyph unicode="&#xce;" horiz-adv-x="273" d="M110 0Q99 0 93 6T87 23V677Q87 687 93 693T110 700H163Q174 700 180 694T186 677V23Q186 13 180 7T163 0H110ZM256 750Q241 750 241 762Q241 770 252 781L344 873Q355 884 362 886T377 888H409Q418 888 425 886T442
873L534 781Q545 770 545 762Q545 750 530 750H503Q496 750 489 752T475 757L393 814L311 757Q306 754 298 752T283 750H256Z" />
<glyph unicode="&#xcf;" horiz-adv-x="273" d="M110 0Q99 0 93 6T87 23V677Q87 687 93 693T110 700H163Q174 700 180 694T186 677V23Q186 13 180 7T163 0H110ZM465 750Q454 750 448 756T442 772V826Q442 836 448 842T465 849H519Q529 849 535 843T542 826V772Q542
762 536 756T519 750H465ZM265 750Q255 750 249 756T243 772V826Q243 836 249 842T265 849H320Q330 849 336 843T343 826V772Q343 762 337 756T320 750H265Z" />
<glyph unicode="&#xd0;" horiz-adv-x="699" d="M119 0Q109 0 103 6T96 23V313H38Q28 313 22 319T15 336V368Q15 378 21 384T38 391H96V676Q96 687 102 693T119 700H346Q450 700 513 669T605 578T635 429Q636 386 636 351T635 272Q633 180 605 120T514 30T350 0H119ZM194
85H346Q415 85 455 104T515 165T535 276Q536 305 536 328T536 373T535 425Q533 522 490 568T342 615H194V391H327Q337 391 343 385T349 368V336Q349 326 343 320T327 313H194V85Z" />
<glyph unicode="&#xd1;" horiz-adv-x="695" d="M110 0Q99 0 93 6T87 23V676Q87 687 93 693T110 700H156Q168 700 174 695T181 686L513 176V676Q513 687 519 693T536 700H584Q595 700 601 694T608 676V24Q608 14 602 7T585 0H537Q526 0 521 6T513 14L182 519V23Q182
13 176 7T158 0H110ZM399 745Q375 745 358 753T328 770T299 779Q287 779 282 772T272 758T256 750H224Q217 750 212 755T207 766Q207 781 212 797T229 828T257 850T293 859Q318 859 335 851T366 834T395 825Q407 825 412 832T421 847T437 855H469Q478 855 482 850T486
838Q486 824 480 808T463 777T435 754T399 745Z" />
<glyph unicode="&#xd2;" horiz-adv-x="677" d="M339 -10Q253 -10 192 19T98 110T61 265Q60 309 60 349T61 434Q65 526 99 587T195 679T339 710Q420 710 481 680T578 588T616 434Q618 390 618 350T616 265Q613 172 580 111T485 20T339 -10ZM339 75Q415 75 463 121T516
270Q518 315 518 350T516 430Q514 499 491 542T428 605T339 625Q289 625 250 605T188 542T161 430Q160 386 160 351T161 270Q165 167 214 121T339 75ZM334 750Q323 750 316 752T301 761L185 856Q180 861 180 868Q180 888 199 888H273Q287 888 294 884T310 869L385
779Q390 774 390 766Q390 750 374 750H334Z" />
<glyph unicode="&#xd3;" horiz-adv-x="677" d="M339 -10Q253 -10 192 19T98 110T61 265Q60 309 60 349T61 434Q65 526 99 587T195 679T339 710Q420 710 481 680T578 588T616 434Q618 390 618 350T616 265Q613 172 580 111T485 20T339 -10ZM339 75Q415 75 463 121T516
270Q518 315 518 350T516 430Q514 499 491 542T428 605T339 625Q289 625 250 605T188 542T161 430Q160 386 160 351T161 270Q165 167 214 121T339 75ZM311 750Q295 750 295 766Q295 774 300 779L375 869Q384 880 391 884T412 888H486Q505 888 505 868Q505 861 500
856L384 761Q376 754 369 752T351 750H311Z" />
<glyph unicode="&#xd4;" horiz-adv-x="677" d="M339 -10Q253 -10 192 19T98 110T61 265Q60 309 60 349T61 434Q65 526 99 587T195 679T339 710Q420 710 481 680T578 588T616 434Q618 390 618 350T616 265Q613 172 580 111T485 20T339 -10ZM339 75Q415 75 463 121T516
270Q518 315 518 350T516 430Q514 499 491 542T428 605T339 625Q289 625 250 605T188 542T161 430Q160 386 160 351T161 270Q165 167 214 121T339 75ZM202 750Q187 750 187 762Q187 770 198 781L290 873Q301 884 308 886T323 888H355Q364 888 371 886T388 873L480
781Q491 770 491 762Q491 750 476 750H449Q442 750 435 752T421 757L339 814L257 757Q252 754 244 752T229 750H202Z" />
<glyph unicode="&#xd5;" horiz-adv-x="677" d="M339 -10Q253 -10 192 19T98 110T61 265Q60 309 60 349T61 434Q65 526 99 587T195 679T339 710Q420 710 481 680T578 588T616 434Q618 390 618 350T616 265Q613 172 580 111T485 20T339 -10ZM339 75Q415 75 463 121T516
270Q518 315 518 350T516 430Q514 499 491 542T428 605T339 625Q289 625 250 605T188 542T161 430Q160 386 160 351T161 270Q165 167 214 121T339 75ZM390 745Q366 745 349 753T319 770T290 779Q278 779 273 772T263 758T247 750H215Q208 750 203 755T198 766Q198
781 203 797T220 828T248 850T284 859Q309 859 326 851T357 834T386 825Q398 825 403 832T412 847T428 855H460Q469 855 473 850T477 838Q477 824 471 808T454 777T426 754T390 745Z" />
<glyph unicode="&#xd6;" horiz-adv-x="677" d="M339 -10Q253 -10 192 19T98 110T61 265Q60 309 60 349T61 434Q65 526 99 587T195 679T339 710Q420 710 481 680T578 588T616 434Q618 390 618 350T616 265Q613 172 580 111T485 20T339 -10ZM339 75Q415 75 463 121T516
270Q518 315 518 350T516 430Q514 499 491 542T428 605T339 625Q289 625 250 605T188 542T161 430Q160 386 160 351T161 270Q165 167 214 121T339 75ZM411 750Q400 750 394 756T388 772V826Q388 836 394 842T411 849H465Q475 849 481 843T488 826V772Q488 762 482
756T465 750H411ZM211 750Q201 750 195 756T189 772V826Q189 836 195 842T211 849H266Q276 849 282 843T289 826V772Q289 762 283 756T266 750H211Z" />
<glyph unicode="&#xd7;" horiz-adv-x="559" d="M100 87L68 119Q61 126 61 135T68 151L215 298L68 446Q61 453 61 462T68 478L100 511Q107 518 116 518T132 511L279 363L427 510Q434 518 443 518T459 510L492 478Q499 471 499 462T492 446L344 298L492 151Q499
144 499 135T492 119L459 87Q452 80 443 80T427 87L279 234L132 87Q125 80 116 80T100 87Z" />
<glyph unicode="&#xd8;" horiz-adv-x="677" d="M339 -10Q253 -10 192 19T98 110T61 265Q60 309 60 349T61 434Q65 526 99 587T195 679T339 710Q420 710 481 680T578 588T616 434Q618 390 618 350T616 265Q613 172 580 111T485 20T339 -10ZM339 75Q415 75 463 121T516
270Q518 315 518 350T516 430Q514 499 491 542T428 605T339 625Q289 625 250 605T188 542T161 430Q160 386 160 351T161 270Q165 167 214 121T339 75ZM101 191Q88 191 83 202T84 224L530 1006Q532 1010 537 1015T552 1021H576Q588 1021 593 1012T591 988L145 206Q143
202 138 197T122 191H101Z" />
<glyph unicode="&#xd9;" horiz-adv-x="701" d="M351 -10Q267 -10 207 20T114 111T81 270V676Q81 687 87 693T104 700H155Q166 700 172 694T179 676V268Q179 170 225 123T351 76Q430 76 476 123T523 268V676Q523 687 529 693T546 700H598Q608 700 614 694T621 676V270Q621
173 589 112T496 20T351 -10ZM346 750Q335 750 328 752T313 761L197 856Q192 861 192 868Q192 888 211 888H285Q299 888 306 884T322 869L397 779Q402 774 402 766Q402 750 386 750H346Z" />
<glyph unicode="&#xda;" horiz-adv-x="701" d="M351 -10Q267 -10 207 20T114 111T81 270V676Q81 687 87 693T104 700H155Q166 700 172 694T179 676V268Q179 170 225 123T351 76Q430 76 476 123T523 268V676Q523 687 529 693T546 700H598Q608 700 614 694T621 676V270Q621
173 589 112T496 20T351 -10ZM324 750Q308 750 308 766Q308 774 313 779L388 869Q397 880 404 884T425 888H499Q518 888 518 868Q518 861 513 856L397 761Q389 754 382 752T364 750H324Z" />
<glyph unicode="&#xdb;" horiz-adv-x="701" d="M351 -10Q267 -10 207 20T114 111T81 270V676Q81 687 87 693T104 700H155Q166 700 172 694T179 676V268Q179 170 225 123T351 76Q430 76 476 123T523 268V676Q523 687 529 693T546 700H598Q608 700 614 694T621 676V270Q621
173 589 112T496 20T351 -10ZM214 750Q199 750 199 762Q199 770 210 781L302 873Q313 884 320 886T335 888H367Q376 888 383 886T400 873L492 781Q503 770 503 762Q503 750 488 750H461Q454 750 447 752T433 757L351 814L269 757Q264 754 256 752T241 750H214Z"
/>
<glyph unicode="&#xdc;" horiz-adv-x="701" d="M351 -10Q267 -10 207 20T114 111T81 270V676Q81 687 87 693T104 700H155Q166 700 172 694T179 676V268Q179 170 225 123T351 76Q430 76 476 123T523 268V676Q523 687 529 693T546 700H598Q608 700 614 694T621 676V270Q621
173 589 112T496 20T351 -10ZM424 750Q413 750 407 756T401 772V826Q401 836 407 842T424 849H478Q488 849 494 843T501 826V772Q501 762 495 756T478 750H424ZM224 750Q214 750 208 756T202 772V826Q202 836 208 842T224 849H279Q289 849 295 843T302 826V772Q302
762 296 756T279 750H224Z" />
<glyph unicode="&#xdd;" horiz-adv-x="647" d="M297 0Q287 0 281 6T274 23V259L33 667Q32 670 31 673T30 680Q30 688 36 694T50 700H102Q111 700 118 696T128 683L323 359L518 683Q523 691 529 695T545 700H596Q605 700 611 694T617 680Q617 676 616 673T613 667L373
259V23Q373 13 367 7T349 0H297ZM296 750Q280 750 280 766Q280 774 285 779L360 869Q369 880 376 884T397 888H471Q490 888 490 868Q490 861 485 856L369 761Q361 754 354 752T336 750H296Z" />
<glyph unicode="&#xde;" horiz-adv-x="647" d="M110 0Q99 0 93 6T87 23V677Q87 687 93 693T110 700H164Q174 700 180 694T187 677V565H363Q437 565 492 541T577 470T607 351Q607 280 577 233T492 163T363 139H187V23Q187 13 181 7T163 0H110ZM186 222H359Q433
222 470 255T507 352Q507 413 471 447T359 482H186V222Z" />
<glyph unicode="&#xdf;" horiz-adv-x="589" d="M98 0Q88 0 82 6T75 23V493Q75 551 97 600T168 679T295 710Q373 710 421 682T491 611T513 523Q513 483 501 454T469 406T429 377Q473 362 497 336T532 275T542 205Q542 171 529 135T489 68T419 19T314 0H247Q235
0 229 6T223 23V56Q223 66 229 72T247 79H300Q372 79 409 116T446 207Q446 261 409 298T299 336H246Q235 336 229 342T223 359V388Q223 398 228 404T246 411H291Q356 412 389 440T422 521Q422 569 387 600T295 631Q237 631 203 597T168 490V23Q168 13 162 7T145
0H98Z" />
<glyph unicode="&#xe0;" horiz-adv-x="552" d="M219 -10Q169 -10 128 10T62 64T37 141Q37 210 93 251T239 305L388 326V355Q388 403 361 430T271 457Q227 457 199 439T160 393Q154 378 139 378H94Q83 378 78 384T72 400Q72 415 83 437T119 480T180 515T272 530Q332
530 373 515T437 473T471 414T482 347V23Q482 13 476 7T459 0H413Q402 0 396 6T390 23V66Q377 48 355 31T300 2T219 -10ZM240 65Q281 65 315 82T368 137T388 230V258L272 241Q201 231 165 208T129 148Q129 120 145 102T187 74T240 65ZM276 595Q265 595 258 597T243
606L127 701Q122 706 122 713Q122 733 141 733H209Q223 733 230 729T246 714L321 624Q326 619 326 611Q326 595 310 595H276Z" />
<glyph unicode="&#xe1;" horiz-adv-x="552" d="M219 -10Q169 -10 128 10T62 64T37 141Q37 210 93 251T239 305L388 326V355Q388 403 361 430T271 457Q227 457 199 439T160 393Q154 378 139 378H94Q83 378 78 384T72 400Q72 415 83 437T119 480T180 515T272 530Q332
530 373 515T437 473T471 414T482 347V23Q482 13 476 7T459 0H413Q402 0 396 6T390 23V66Q377 48 355 31T300 2T219 -10ZM240 65Q281 65 315 82T368 137T388 230V258L272 241Q201 231 165 208T129 148Q129 120 145 102T187 74T240 65ZM246 595Q230 595 230 611Q230
619 235 624L310 714Q319 725 326 729T347 733H415Q434 733 434 713Q434 706 429 701L313 606Q305 599 298 597T280 595H246Z" />
<glyph unicode="&#xe2;" horiz-adv-x="552" d="M219 -10Q169 -10 128 10T62 64T37 141Q37 210 93 251T239 305L388 326V355Q388 403 361 430T271 457Q227 457 199 439T160 393Q154 378 139 378H94Q83 378 78 384T72 400Q72 415 83 437T119 480T180 515T272 530Q332
530 373 515T437 473T471 414T482 347V23Q482 13 476 7T459 0H413Q402 0 396 6T390 23V66Q377 48 355 31T300 2T219 -10ZM240 65Q281 65 315 82T368 137T388 230V258L272 241Q201 231 165 208T129 148Q129 120 145 102T187 74T240 65ZM138 595Q123 595 123 607Q123
615 134 626L226 718Q236 729 243 731T259 733H289Q298 733 305 731T322 718L414 626Q425 615 425 607Q425 595 410 595H384Q377 595 369 597T356 602L274 659L192 602Q187 599 179 597T164 595H138Z" />
<glyph unicode="&#xe3;" horiz-adv-x="552" d="M219 -10Q169 -10 128 10T62 64T37 141Q37 210 93 251T239 305L388 326V355Q388 403 361 430T271 457Q227 457 199 439T160 393Q154 378 139 378H94Q83 378 78 384T72 400Q72 415 83 437T119 480T180 515T272 530Q332
530 373 515T437 473T471 414T482 347V23Q482 13 476 7T459 0H413Q402 0 396 6T390 23V66Q377 48 355 31T300 2T219 -10ZM240 65Q281 65 315 82T368 137T388 230V258L272 241Q201 231 165 208T129 148Q129 120 145 102T187 74T240 65ZM324 590Q299 590 284 598T257
615T229 624Q217 624 212 617T202 603T186 595H154Q147 595 142 600T137 611Q137 626 142 641T159 670T185 692T220 700Q246 700 261 692T289 675T317 666Q329 666 334 673T343 688T359 696H391Q399 696 403 691T408 679Q408 665 403 649T386 620T360 598T324 590Z"
/>
<glyph unicode="&#xe4;" horiz-adv-x="552" d="M219 -10Q169 -10 128 10T62 64T37 141Q37 210 93 251T239 305L388 326V355Q388 403 361 430T271 457Q227 457 199 439T160 393Q154 378 139 378H94Q83 378 78 384T72 400Q72 415 83 437T119 480T180 515T272 530Q332
530 373 515T437 473T471 414T482 347V23Q482 13 476 7T459 0H413Q402 0 396 6T390 23V66Q377 48 355 31T300 2T219 -10ZM240 65Q281 65 315 82T368 137T388 230V258L272 241Q201 231 165 208T129 148Q129 120 145 102T187 74T240 65ZM331 621Q320 621 314 627T308
643V697Q308 707 314 713T331 720H385Q395 720 401 714T408 697V643Q408 633 402 627T385 621H331ZM161 621Q151 621 145 627T139 643V697Q139 707 145 713T161 720H216Q226 720 232 714T239 697V643Q239 633 233 627T216 621H161Z" />
<glyph unicode="&#xe5;" horiz-adv-x="552" d="M219 -10Q169 -10 128 10T62 64T37 141Q37 210 93 251T239 305L388 326V355Q388 403 361 430T271 457Q227 457 199 439T160 393Q154 378 139 378H94Q83 378 78 384T72 400Q72 415 83 437T119 480T180 515T272 530Q332
530 373 515T437 473T471 414T482 347V23Q482 13 476 7T459 0H413Q402 0 396 6T390 23V66Q377 48 355 31T300 2T219 -10ZM240 65Q281 65 315 82T368 137T388 230V258L272 241Q201 231 165 208T129 148Q129 120 145 102T187 74T240 65ZM273 590Q239 590 214 612T189
669Q189 703 213 725T273 748Q308 748 332 726T357 669Q357 634 333 612T273 590ZM273 639Q286 639 294 647T303 669Q303 682 295 690T273 699Q260 699 252 691T243 669Q243 656 251 648T273 639Z" />
<glyph unicode="&#xe6;" horiz-adv-x="891" d="M224 -10Q168 -10 126 10T61 64T38 141Q38 210 94 252T240 307L388 328V355Q388 403 361 430T272 457Q239 457 216 447T179 423T157 395Q153 386 149 382T137 378H94Q85 378 79 384T72 400Q72 415 83 437T118 480T180
515T273 530Q345 530 386 508T447 452Q474 486 515 508T617 530Q687 530 732 506T801 441T835 356T845 269V252Q845 241 838 235T821 229H484V220Q486 163 505 129T555 80T616 64Q649 64 681 77T734 121Q742 132 747 135T765 138H810Q831 138 831 117Q831 105 818
84T778 41T711 5T616 -10Q545 -10 499 18T427 91Q395 39 344 15T224 -10ZM241 65Q282 65 315 82T369 137T389 230V258L273 241Q202 231 166 208T130 148Q130 120 146 102T188 74T241 65ZM484 298H749V302Q749 369 717 413T617 457Q583 457 554 440T505 389T484
302V298Z" />
<glyph unicode="&#xe7;" horiz-adv-x="552" d="M282 -220Q254 -219 233 -210T202 -189T201 -169L216 -155Q225 -147 232 -151T250 -163T282 -170Q298 -170 310 -160T322 -133Q322 -117 310 -108T282 -98Q267 -98 257 -102T239 -107T223 -101L206 -83Q201 -77 203
-69T210 -53L230 -5Q148 9 102 67T52 220Q51 235 51 260T52 300Q54 372 82 423T161 502T284 530Q342 530 383 514T452 473T492 419T507 364Q508 354 501 348T484 342H436Q426 342 421 346T411 362Q393 411 362 431T285 451Q225 451 188 414T147 295Q146 259 147
225Q150 142 187 106T285 69Q331 69 362 89T411 158Q416 169 421 174T436 179H484Q494 179 501 173T507 156Q506 131 493 102T453 48T386 7T285 -10L263 -56Q269 -52 279 -50T300 -48Q334 -48 355 -71T377 -132Q377 -168 353 -194T282 -220Z" />
<glyph unicode="&#xe8;" horiz-adv-x="560" d="M282 -10Q178 -10 117 53T50 227Q49 240 49 260T50 294Q54 365 83 418T162 501T281 530Q357 530 408 498T487 407T514 269V252Q514 241 508 235T491 229H145Q145 228 145 225T145 220Q147 179 163 144T209 86T281
64Q317 64 341 75T380 99T400 121Q409 133 414 135T430 138H479Q488 138 494 133T500 117Q499 102 484 81T442 38T374 4T282 -10ZM145 298H419V301Q419 346 403 381T355 436T281 457Q238 457 208 437T161 381T145 301V298ZM283 595Q272 595 265 597T250 606L134
701Q129 706 129 713Q129 733 148 733H216Q230 733 237 729T253 714L328 624Q333 619 333 611Q333 595 317 595H283Z" />
<glyph unicode="&#xe9;" horiz-adv-x="560" d="M282 -10Q178 -10 117 53T50 227Q49 240 49 260T50 294Q54 365 83 418T162 501T281 530Q357 530 408 498T487 407T514 269V252Q514 241 508 235T491 229H145Q145 228 145 225T145 220Q147 179 163 144T209 86T281
64Q317 64 341 75T380 99T400 121Q409 133 414 135T430 138H479Q488 138 494 133T500 117Q499 102 484 81T442 38T374 4T282 -10ZM145 298H419V301Q419 346 403 381T355 436T281 457Q238 457 208 437T161 381T145 301V298ZM254 595Q238 595 238 611Q238 619 243
624L318 714Q327 725 334 729T355 733H423Q442 733 442 713Q442 706 437 701L321 606Q313 599 306 597T288 595H254Z" />
<glyph unicode="&#xea;" horiz-adv-x="560" d="M282 -10Q178 -10 117 53T50 227Q49 240 49 260T50 294Q54 365 83 418T162 501T281 530Q357 530 408 498T487 407T514 269V252Q514 241 508 235T491 229H145Q145 228 145 225T145 220Q147 179 163 144T209 86T281
64Q317 64 341 75T380 99T400 121Q409 133 414 135T430 138H479Q488 138 494 133T500 117Q499 102 484 81T442 38T374 4T282 -10ZM145 298H419V301Q419 346 403 381T355 436T281 457Q238 457 208 437T161 381T145 301V298ZM145 595Q130 595 130 607Q130 615 141
626L233 718Q243 729 250 731T266 733H296Q305 733 312 731T329 718L421 626Q432 615 432 607Q432 595 417 595H391Q384 595 376 597T363 602L281 659L199 602Q194 599 186 597T171 595H145Z" />
<glyph unicode="&#xeb;" horiz-adv-x="560" d="M282 -10Q178 -10 117 53T50 227Q49 240 49 260T50 294Q54 365 83 418T162 501T281 530Q357 530 408 498T487 407T514 269V252Q514 241 508 235T491 229H145Q145 228 145 225T145 220Q147 179 163 144T209 86T281
64Q317 64 341 75T380 99T400 121Q409 133 414 135T430 138H479Q488 138 494 133T500 117Q499 102 484 81T442 38T374 4T282 -10ZM145 298H419V301Q419 346 403 381T355 436T281 457Q238 457 208 437T161 381T145 301V298ZM339 621Q328 621 322 627T316 643V697Q316
707 322 713T339 720H393Q403 720 409 714T416 697V643Q416 633 410 627T393 621H339ZM169 621Q159 621 153 627T147 643V697Q147 707 153 713T169 720H224Q234 720 240 714T247 697V643Q247 633 241 627T224 621H169Z" />
<glyph unicode="&#xec;" horiz-adv-x="242" d="M97 0Q87 0 81 6T74 23V497Q74 507 80 513T97 520H145Q155 520 161 514T168 497V23Q168 13 162 7T145 0H97ZM379 595Q368 595 361 597T346 606L230 701Q225 706 225 713Q225 733 244 733H312Q326 733 333 729T349
714L424 624Q429 619 429 611Q429 595 413 595H379Z" />
<glyph unicode="&#xed;" horiz-adv-x="242" d="M97 0Q87 0 81 6T74 23V497Q74 507 80 513T97 520H145Q155 520 161 514T168 497V23Q168 13 162 7T145 0H97ZM94 595Q78 595 78 611Q78 619 83 624L158 714Q167 725 174 729T195 733H263Q282 733 282 713Q282 706
277 701L161 606Q153 599 146 597T128 595H94Z" />
<glyph unicode="&#xee;" horiz-adv-x="242" d="M97 0Q87 0 81 6T74 23V497Q74 507 80 513T97 520H145Q155 520 161 514T168 497V23Q168 13 162 7T145 0H97ZM242 595Q227 595 227 607Q227 615 238 626L330 718Q340 729 347 731T363 733H393Q402 733 409 731T426
718L518 626Q529 615 529 607Q529 595 514 595H488Q481 595 473 597T460 602L378 659L296 602Q291 599 283 597T268 595H242Z" />
<glyph unicode="&#xef;" horiz-adv-x="242" d="M97 0Q87 0 81 6T74 23V497Q74 507 80 513T97 520H145Q155 520 161 514T168 497V23Q168 13 162 7T145 0H97ZM435 621Q424 621 418 627T412 643V697Q412 707 418 713T435 720H489Q499 720 505 714T512 697V643Q512
633 506 627T489 621H435ZM265 621Q255 621 249 627T243 643V697Q243 707 249 713T265 720H320Q330 720 336 714T343 697V643Q343 633 337 627T320 621H265Z" />
<glyph unicode="&#xf0;" horiz-adv-x="567" d="M281 -10Q206 -10 154 20T76 105T49 231Q49 302 76 356T155 440T281 470Q314 470 342 462T391 438Q370 500 333 548L232 509Q225 506 220 506Q212 506 206 510T200 524V545Q200 557 205 562T222 572L287 597Q271
612 253 627T215 658Q206 666 203 671T199 680Q199 689 204 694T219 700H271Q284 700 293 697T310 687Q327 673 342 659T372 629L465 665Q473 668 477 668Q486 668 491 664T497 650V629Q497 618 492 613T475 602L417 580Q461 524 486 445T513 243Q514 239 514 236T513
228Q513 158 486 104T407 20T281 -10ZM281 67Q327 67 357 88T402 144T418 223Q418 227 418 230T418 237Q418 280 403 315T358 372T281 393Q235 393 205 372T159 316T144 237Q144 232 144 229T144 222Q145 179 160 144T206 88T281 67Z" />
<glyph unicode="&#xf1;" horiz-adv-x="606" d="M97 0Q87 0 81 6T74 23V497Q74 507 80 513T97 520H144Q154 520 160 514T167 497V453Q193 487 232 508T334 530Q399 530 444 502T513 423T537 305V23Q537 13 531 7T514 0H464Q454 0 448 6T441 23V300Q441 370 407
409T307 449Q245 449 208 410T170 300V23Q170 13 164 7T147 0H97ZM356 590Q331 590 316 598T289 615T261 624Q249 624 244 617T234 603T218 595H186Q179 595 174 600T169 611Q169 626 174 641T191 670T217 692T252 700Q278 700 293 692T321 675T349 666Q361 666
366 673T375 688T391 696H423Q431 696 435 691T440 679Q440 665 435 649T418 620T392 598T356 590Z" />
<glyph unicode="&#xf2;" horiz-adv-x="574" d="M287 -10Q211 -10 160 19T82 99T52 217Q51 234 51 260T52 303Q55 370 82 421T161 501T287 530Q362 530 413 501T491 421T522 303Q523 287 523 261T522 217Q519 151 492 100T414 19T287 -10ZM287 67Q349 67 386 106T426
222Q427 237 427 260T426 298Q423 374 386 413T287 453Q225 453 188 414T148 298Q147 283 147 260T148 222Q150 146 187 107T287 67ZM289 595Q278 595 271 597T256 606L140 701Q135 706 135 713Q135 733 154 733H222Q236 733 243 729T259 714L334 624Q339 619 339
611Q339 595 323 595H289Z" />
<glyph unicode="&#xf3;" horiz-adv-x="574" d="M287 -10Q211 -10 160 19T82 99T52 217Q51 234 51 260T52 303Q55 370 82 421T161 501T287 530Q362 530 413 501T491 421T522 303Q523 287 523 261T522 217Q519 151 492 100T414 19T287 -10ZM287 67Q349 67 386 106T426
222Q427 237 427 260T426 298Q423 374 386 413T287 453Q225 453 188 414T148 298Q147 283 147 260T148 222Q150 146 187 107T287 67ZM259 595Q243 595 243 611Q243 619 248 624L323 714Q332 725 339 729T360 733H428Q447 733 447 713Q447 706 442 701L326 606Q318
599 311 597T293 595H259Z" />
<glyph unicode="&#xf4;" horiz-adv-x="574" d="M287 -10Q211 -10 160 19T82 99T52 217Q51 234 51 260T52 303Q55 370 82 421T161 501T287 530Q362 530 413 501T491 421T522 303Q523 287 523 261T522 217Q519 151 492 100T414 19T287 -10ZM287 67Q349 67 386 106T426
222Q427 237 427 260T426 298Q423 374 386 413T287 453Q225 453 188 414T148 298Q147 283 147 260T148 222Q150 146 187 107T287 67ZM151 595Q136 595 136 607Q136 615 147 626L239 718Q249 729 256 731T272 733H302Q311 733 318 731T335 718L427 626Q438 615 438
607Q438 595 423 595H397Q390 595 382 597T369 602L287 659L205 602Q200 599 192 597T177 595H151Z" />
<glyph unicode="&#xf5;" horiz-adv-x="574" d="M287 -10Q211 -10 160 19T82 99T52 217Q51 234 51 260T52 303Q55 370 82 421T161 501T287 530Q362 530 413 501T491 421T522 303Q523 287 523 261T522 217Q519 151 492 100T414 19T287 -10ZM287 67Q349 67 386 106T426
222Q427 237 427 260T426 298Q423 374 386 413T287 453Q225 453 188 414T148 298Q147 283 147 260T148 222Q150 146 187 107T287 67ZM338 590Q313 590 298 598T271 615T243 624Q231 624 226 617T216 603T200 595H168Q161 595 156 600T151 611Q151 626 156 641T173
670T199 692T234 700Q260 700 275 692T303 675T331 666Q343 666 348 673T357 688T373 696H405Q413 696 417 691T422 679Q422 665 417 649T400 620T374 598T338 590Z" />
<glyph unicode="&#xf6;" horiz-adv-x="574" d="M287 -10Q211 -10 160 19T82 99T52 217Q51 234 51 260T52 303Q55 370 82 421T161 501T287 530Q362 530 413 501T491 421T522 303Q523 287 523 261T522 217Q519 151 492 100T414 19T287 -10ZM287 67Q349 67 386 106T426
222Q427 237 427 260T426 298Q423 374 386 413T287 453Q225 453 188 414T148 298Q147 283 147 260T148 222Q150 146 187 107T287 67ZM344 621Q333 621 327 627T321 643V697Q321 707 327 713T344 720H398Q408 720 414 714T421 697V643Q421 633 415 627T398 621H344ZM174
621Q164 621 158 627T152 643V697Q152 707 158 713T174 720H229Q239 720 245 714T252 697V643Q252 633 246 627T229 621H174Z" />
<glyph unicode="&#xf7;" horiz-adv-x="556" d="M88 261Q78 261 72 267T65 283V317Q65 327 71 333T88 340H468Q479 340 485 334T491 317V283Q491 273 485 267T468 261H88ZM246 69Q236 69 230 75T223 92V152Q223 162 229 169T246 176H309Q319 176 325 169T332 152V92Q332
81 326 75T309 69H246ZM246 425Q236 425 230 431T223 448V508Q223 519 229 525T246 532H309Q319 532 325 526T332 508V448Q332 438 326 432T309 425H246Z" />
<glyph unicode="&#xf8;" horiz-adv-x="574" d="M287 -10Q211 -10 160 19T82 99T52 217Q51 234 51 260T52 303Q55 370 82 421T161 501T287 530Q362 530 413 501T491 421T522 303Q523 287 523 261T522 217Q519 151 492 100T414 19T287 -10ZM287 67Q349 67 386 106T426
222Q427 237 427 260T426 298Q423 374 386 413T287 453Q225 453 188 414T148 298Q147 283 147 260T148 222Q150 146 187 107T287 67ZM73 -28Q65 -28 59 -22T53 -8Q53 -5 53 -2T57 5L456 532Q459 536 464 541T479 547H500Q508 547 514 541T520 527Q520 526 520 523T516
514L117 -13Q114 -17 110 -22T95 -28H73Z" />
<glyph unicode="&#xf9;" horiz-adv-x="602" d="M268 -10Q204 -10 160 18T92 98T69 215V497Q69 507 75 513T92 520H142Q152 520 158 514T165 497V220Q165 71 295 71Q357 71 394 110T432 220V497Q432 507 438 513T455 520H505Q515 520 521 514T527 497V23Q527 13
521 7T505 0H458Q448 0 442 6T435 23V67Q408 32 370 11T268 -10ZM300 595Q289 595 282 597T267 606L151 701Q146 706 146 713Q146 733 165 733H233Q247 733 254 729T270 714L345 624Q350 619 350 611Q350 595 334 595H300Z" />
<glyph unicode="&#xfa;" horiz-adv-x="602" d="M268 -10Q204 -10 160 18T92 98T69 215V497Q69 507 75 513T92 520H142Q152 520 158 514T165 497V220Q165 71 295 71Q357 71 394 110T432 220V497Q432 507 438 513T455 520H505Q515 520 521 514T527 497V23Q527 13
521 7T505 0H458Q448 0 442 6T435 23V67Q408 32 370 11T268 -10ZM270 595Q254 595 254 611Q254 619 259 624L334 714Q343 725 350 729T371 733H439Q458 733 458 713Q458 706 453 701L337 606Q329 599 322 597T304 595H270Z" />
<glyph unicode="&#xfb;" horiz-adv-x="602" d="M268 -10Q204 -10 160 18T92 98T69 215V497Q69 507 75 513T92 520H142Q152 520 158 514T165 497V220Q165 71 295 71Q357 71 394 110T432 220V497Q432 507 438 513T455 520H505Q515 520 521 514T527 497V23Q527 13
521 7T505 0H458Q448 0 442 6T435 23V67Q408 32 370 11T268 -10ZM162 595Q147 595 147 607Q147 615 158 626L250 718Q260 729 267 731T283 733H313Q322 733 329 731T346 718L438 626Q449 615 449 607Q449 595 434 595H408Q401 595 393 597T380 602L298 659L216
602Q211 599 203 597T188 595H162Z" />
<glyph unicode="&#xfc;" horiz-adv-x="602" d="M268 -10Q204 -10 160 18T92 98T69 215V497Q69 507 75 513T92 520H142Q152 520 158 514T165 497V220Q165 71 295 71Q357 71 394 110T432 220V497Q432 507 438 513T455 520H505Q515 520 521 514T527 497V23Q527 13
521 7T505 0H458Q448 0 442 6T435 23V67Q408 32 370 11T268 -10ZM355 621Q344 621 338 627T332 643V697Q332 707 338 713T355 720H409Q419 720 425 714T432 697V643Q432 633 426 627T409 621H355ZM185 621Q175 621 169 627T163 643V697Q163 707 169 713T185 720H240Q250
720 256 714T263 697V643Q263 633 257 627T240 621H185Z" />
<glyph unicode="&#xfd;" horiz-adv-x="552" d="M165 -190Q157 -190 151 -184T145 -170Q145 -166 146 -162T150 -152L227 31L36 482Q31 494 31 499Q31 508 37 514T52 520H101Q112 520 117 515T125 503L277 139L433 503Q436 510 441 515T458 520H505Q514 520 520
514T526 500Q526 495 521 482L237 -173Q234 -180 229 -185T212 -190H165ZM246 595Q230 595 230 611Q230 619 235 624L310 714Q319 725 326 729T347 733H415Q434 733 434 713Q434 706 429 701L313 606Q305 599 298 597T280 595H246Z" />
<glyph unicode="&#xfe;" horiz-adv-x="596" d="M98 -190Q88 -190 82 -184T75 -167V687Q75 697 81 703T98 710H147Q157 710 163 704T170 687V455Q194 488 232 509T331 530Q387 530 426 511T491 459T530 384T545 294Q546 278 546 260T545 226Q544 179 531 137T492
62T427 10T331 -10Q273 -10 234 11T170 65V-167Q170 -177 164 -183T147 -190H98ZM311 71Q362 71 391 93T434 152T449 231Q451 260 449 289Q447 331 434 367T392 426T311 449Q261 449 231 426T186 368T170 295Q169 279 169 257T170 218Q171 183 186 149T232 93T311
71Z" />
<glyph unicode="&#xff;" horiz-adv-x="552" d="M165 -190Q157 -190 151 -184T145 -170Q145 -166 146 -162T150 -152L227 31L36 482Q31 494 31 499Q31 508 37 514T52 520H101Q112 520 117 515T125 503L277 139L433 503Q436 510 441 515T458 520H505Q514 520 520
514T526 500Q526 495 521 482L237 -173Q234 -180 229 -185T212 -190H165ZM331 621Q320 621 314 627T308 643V697Q308 707 314 713T331 720H385Q395 720 401 714T408 697V643Q408 633 402 627T385 621H331ZM161 621Q151 621 145 627T139 643V697Q139 707 145 713T161
720H216Q226 720 232 714T239 697V643Q239 633 233 627T216 621H161Z" />
<glyph unicode="&#x2013;" horiz-adv-x="574" d="M92 258Q82 258 76 264T69 281V319Q69 329 75 335T92 342H482Q493 342 499 336T505 319V281Q505 271 499 265T482 258H92Z" />
<glyph unicode="&#x2014;" horiz-adv-x="764" d="M92 258Q82 258 76 264T69 281V319Q69 329 75 335T92 342H672Q683 342 689 336T695 319V281Q695 271 689 265T672 258H92Z" />
<glyph unicode="&#x2018;" horiz-adv-x="235" d="M67 517Q60 517 56 522T51 534Q51 542 54 550L107 687Q112 697 118 703T136 710H169Q177 710 181 704T184 688L162 546Q161 534 154 526T134 517H67Z" />
<glyph unicode="&#x2019;" horiz-adv-x="228" d="M73 517Q65 517 61 523T57 538L80 681Q82 693 88 701T108 710H175Q182 710 186 705T191 693Q191 685 187 677L135 540Q131 530 125 524T106 517H73Z" />
<glyph unicode="&#x201a;" horiz-adv-x="249" d="M67 -75Q58 -75 54 -69T51 -53L74 89Q76 101 82 109T102 118H168Q176 118 180 113T185 101Q185 93 181 85L129 -52Q125 -62 119 -68T99 -75H67Z" />
<glyph unicode="&#x201c;" horiz-adv-x="395" d="M227 517Q220 517 216 522T211 534Q211 542 214 550L267 687Q272 697 278 703T296 710H329Q337 710 341 704T344 688L322 546Q321 534 314 526T294 517H227ZM67 517Q60 517 56 522T51 534Q51 542 54 550L107 687Q112
697 118 703T136 710H169Q177 710 181 704T184 688L162 546Q161 534 154 526T134 517H67Z" />
<glyph unicode="&#x201d;" horiz-adv-x="388" d="M233 517Q224 517 220 523T217 538L240 681Q242 693 248 701T268 710H334Q342 710 346 705T351 693Q351 685 347 677L295 540Q291 530 285 524T265 517H233ZM73 517Q65 517 61 523T57 538L80 681Q82 693 88 701T108
710H175Q182 710 186 705T191 693Q191 685 187 677L135 540Q131 530 125 524T106 517H73Z" />
<glyph unicode="&#x201e;" horiz-adv-x="409" d="M227 -75Q218 -75 214 -69T211 -54L233 89Q235 101 241 109T262 118H328Q336 118 340 113T345 101Q345 93 341 85L288 -52Q284 -62 278 -68T259 -75H227ZM67 -75Q58 -75 54 -69T51 -53L74 89Q76 101 82 109T102
118H168Q176 118 180 113T185 101Q185 93 181 85L129 -52Q125 -62 119 -68T99 -75H67Z" />
<glyph unicode="&#x2022;" horiz-adv-x="382" d="M191 202Q162 202 137 216T98 255T83 309Q83 339 97 363T137 402T191 417Q221 417 245 403T283 364T298 309Q298 280 284 256T245 217T191 202Z" />
<glyph unicode="&#x2039;" horiz-adv-x="352" d="M274 85Q269 85 264 87T252 95L59 283Q49 292 46 300T42 316V342Q43 350 46 358T59 375L252 563Q258 568 263 571T274 574Q283 574 289 568T295 553V513Q295 500 291 493T277 475L126 329L277 183Q287 173 291
166T295 145V105Q295 96 289 91T274 85Z" />
<glyph unicode="&#x203a;" horiz-adv-x="352" d="M78 85Q69 85 63 90T57 105V145Q57 158 61 165T75 183L226 329L75 475Q65 485 61 492T57 513V553Q57 562 63 568T78 574Q83 574 88 571T100 563L293 375Q302 366 305 358T310 342V316Q309 308 306 300T293 283L100
95Q94 90 89 88T78 85Z" />
</font>
</defs>
</svg>
